<?xml version="1.0" standalone="no"?>
<!DOCTYPE svg PUBLIC "-//W3C//DTD SVG 1.1//EN" "http://www.w3.org/Graphics/SVG/1.1/DTD/svg11.dtd" >
<svg xmlns="http://www.w3.org/2000/svg">
<metadata>Generated by IcoMoon</metadata>
<defs>
<font id="elIcons" horiz-adv-x="1024">
<font-face units-per-em="1024" ascent="960" descent="-64" />
<missing-glyph horiz-adv-x="1024" />
<glyph unicode="&#x20;" horiz-adv-x="512" d="" />
<glyph unicode="&#xe900;" glyph-name="endpoint" d="M751.991 328.025c0-68.4-103.175-120-239.991-120s-239.991 51.6-239.991 120c0 52.512 59.979 95.772 156.488 112.894 11.054 1.86 21.253-5.34 23.173-16.213 1.935-10.86-5.324-21.24-16.2-23.173-71.558-12.674-123.489-43.571-123.489-73.5 0-37.841 82.117-79.987 199.989-79.987s199.988 42.161 199.988 79.987c0 29.922-51.94 60.819-123.487 73.5-10.874 1.935-18.12 12.314-16.2 23.173 1.92 10.874 12.12 18.133 23.173 16.213 96.515-17.1 156.487-60.36 156.487-112.894h0.045zM492.007 328.025v306.139c0 27.732 14.64 40.961 23.402 46.36 14.534 8.984 34.511 9.944 49.74 2.34 0.78-0.375 106.020-71.229 106.020-71.229 14.58-10.754 22.033-27.12 20.683-44.28-1.32-17.143-11.234-32.142-26.46-40.121l-133.38-65.409v-133.771c0-11.040-8.94-19.993-19.993-19.993s-19.993 8.94-19.993 19.98zM531.993 506.355l115.293 56.559c3.66 1.92 4.515 5.564 4.665 7.544 0.165 1.995-0.135 5.76-3.855 8.52l-101.58 68.438c-1.095 0.375-2.535 0.615-4.080 0.615-2.040 0-4.245-0.42-6-1.515-2.94-1.815-4.44-5.954-4.44-12.344v-127.808z" />
<glyph unicode="&#xe901;" glyph-name="walk" horiz-adv-x="892" d="M412.145 637.428c0 27.534 22.31 49.844 49.843 49.844 27.536 0 49.846-22.31 49.846-49.844s-22.31-49.845-49.846-49.845c-27.533 0-49.843 22.311-49.843 49.845zM594.994 444.869l-52.336 26.16c0 0-45.219 71.615-46.236 72.793-13.259 15.152-32.4 23.825-52.516 23.825-25.401 0-50.822-6-73.529-17.365l-50.363-25.181c-12.781-6.4-22.212-17.985-25.88-31.821l-12.621-47.592c-4.228-15.97 5.283-32.34 21.234-36.565 15.989-4.247 32.34 5.264 36.565 21.234l11.465 43.223 36.505 18.265-13.197-56.425c-6.998-29.907 6.759-61.387 33.474-76.561l79.274-45.018c3.11-1.775 5.043-5.106 5.043-8.694v-66.512c0-16.528 13.398-29.907 29.907-29.907s29.907 13.379 29.907 29.907v66.512c0 25.043-13.537 48.291-35.309 60.672l-54.31 30.842 16.927 63.103 17.444-27.713c2.912-4.625 7.058-8.374 11.943-10.826l59.813-29.907c4.307-2.134 8.852-3.17 13.357-3.17 10.967 0 21.533 6.060 26.777 16.549 7.376 14.774 1.395 32.737-13.379 40.135l0.041 0.038zM389.397 335.911c-16.19 3.208-31.902-7.536-34.972-23.767l-0.778-3.986-28.052-56.105c-7.376-14.774-1.395-32.739 13.379-40.135 4.285-2.134 8.852-3.17 13.357-3.17 10.965 0 21.533 6.060 26.777 16.547l29.907 59.813c1.235 2.452 2.113 5.065 2.61 7.776l1.536 8.056c3.11 16.209-7.536 31.88-23.765 34.972z" />
<glyph unicode="&#xe902;" glyph-name="transit" horiz-adv-x="892" d="M504.758 459.677l-42.568-36.443c-5.828-4.988-14.575-4.39-19.671 1.342l-46.946 52.813-69.984-62.208c4.986-9.049 7.821-19.449 7.821-30.512 0-34.979-28.354-63.332-63.33-63.332-34.978 0-63.332 28.354-63.332 63.332 0 34.976 28.354 63.33 63.332 63.33 13.726 0 26.43-4.366 36.804-11.786l80.508 71.563c5.809 5.163 14.704 4.641 19.87-1.168l47.116-53.006 83.016 71.072c-4.443 8.659-6.953 18.475-6.953 28.878 0 34.979 28.354 63.332 63.332 63.332 34.976 0 63.332-28.354 63.332-63.332 0-34.976-28.356-63.33-63.332-63.33-14.389 0-27.658 4.797-38.292 12.881l-29.342-25.119 66.4-79.417c8.783 4.606 18.777 7.211 29.383 7.211 34.976 0 63.33-28.354 63.33-63.33 0-34.979-28.354-63.332-63.33-63.332s-63.332 28.354-63.332 63.332c0 14.185 4.665 27.282 12.544 37.84l-66.376 79.389z" />
<glyph unicode="&#xe903;" glyph-name="train" horiz-adv-x="892" d="M535.719 687.302h-179.439c-29.072-0.032-56.947-11.595-77.503-32.153-20.559-20.558-32.122-48.432-32.153-77.504v-179.439c0.026-22.15 6.749-43.774 19.284-62.033s30.297-32.304 50.956-40.288l-25.818-41.331c-4.218-6.725-5.591-14.853-3.816-22.59s6.551-14.453 13.276-18.671c6.725-4.216 14.85-5.589 22.59-3.814 7.737 1.773 14.453 6.548 18.671 13.274l41.070 65.794h126.325l41.072-65.794c4.204-6.725 10.908-11.506 18.635-13.29 7.73-1.782 15.85-0.423 22.576 3.78s11.506 10.908 13.29 18.638c1.782 7.728 0.423 15.848-3.78 22.573l-25.82 41.331c20.676 7.991 38.45 22.049 50.987 40.331 12.534 18.279 19.248 39.924 19.255 62.091v179.439c-0.033 29.072-11.597 56.946-32.153 77.504-20.559 20.558-48.432 32.121-77.506 32.153zM475.906 487.926v99.687h108.661c0.665-3.28 1-6.62 0.998-9.967v-89.72h-109.659zM306.437 487.926v89.72c-0.002 3.347 0.33 6.687 0.998 9.967h108.659v-99.687h-109.657zM535.719 348.361h-179.439c-13.219 0-25.897 5.252-35.244 14.599s-14.599 22.026-14.599 35.247v29.907h39.876v-9.97c0-7.931 3.151-15.539 8.759-21.148s13.214-8.759 21.148-8.759c7.931 0 15.537 3.151 21.148 8.759 5.608 5.608 8.759 13.216 8.759 21.148v9.97h79.75v-9.97c0-7.931 3.151-15.539 8.759-21.148s13.216-8.759 21.148-8.759c7.931 0 15.539 3.151 21.148 8.759s8.759 13.216 8.759 21.148v9.97h39.876v-29.907c0-13.221-5.252-25.899-14.599-35.247s-22.026-14.599-35.247-14.599z" />
<glyph unicode="&#xe904;" glyph-name="ticket" horiz-adv-x="892" d="M386.187 268.561h239.252c15.863 0 31.077 6.302 42.294 17.518 11.217 11.219 17.519 26.433 17.519 42.295v79.75h-19.938c-10.576 0-20.718 4.201-28.196 11.68-7.478 7.477-11.679 17.621-11.679 28.196s4.201 20.719 11.679 28.196c7.478 7.479 17.62 11.68 28.196 11.68h19.938v79.75c0 15.862-6.302 31.076-17.519 42.295-11.217 11.216-26.431 17.518-42.294 17.518h-239.252v-79.75h-39.876v79.75h-139.563v-139.563h19.937c10.577 0 20.719-4.201 28.196-11.68 7.479-7.477 11.68-17.621 11.68-28.196s-4.201-20.719-11.68-28.196c-7.477-7.479-17.619-11.68-28.196-11.68h-19.937v-139.563h139.563v79.75h39.876v-79.75zM346.311 408.124v79.752h39.876v-79.752h-39.876z" />
<glyph unicode="&#xe905;" glyph-name="tennis" horiz-adv-x="892" d="M468.311 686.075c55.502-5.114 107.467-29.492 146.879-68.905 39.414-39.414 63.792-91.377 68.905-146.881-29.351-4.371-59.318-1.814-87.502 7.472-28.186 9.285-53.805 25.040-74.809 46.001-20.968 21.002-36.725 46.621-46.011 74.808s-11.841 58.155-7.462 87.506zM656.402 428.061c-32.589-0.014-64.809 6.902-94.524 20.289-29.713 13.386-56.239 32.94-77.819 57.358-21.583 24.42-37.723 53.152-47.355 84.286-9.63 31.134-12.53 63.96-8.508 96.301-57.181-4.094-110.965-28.684-151.471-69.252-40.507-40.568-65.014-94.391-69.020-151.577 34.716 4.819 70.078 1.524 103.305-9.623 33.23-11.149 63.423-29.849 88.208-54.631 24.784-24.784 43.487-54.975 54.638-88.203 11.149-33.227 14.446-68.589 9.63-103.304 57.148 3.991 110.937 28.459 151.499 68.914 40.56 40.453 65.17 94.179 69.311 151.318-9.252-1.189-18.566-1.816-27.894-1.876zM371.033 373.013c-21.078 21.035-46.862 36.754-75.216 45.853-28.356 9.101-58.47 11.324-87.854 6.484 5.21-55.346 29.57-107.14 68.879-146.449s91.103-63.667 146.449-68.878c4.845 29.366 2.632 59.461-6.453 87.803-9.087 28.342-24.787 54.114-45.805 75.187z" />
<glyph unicode="&#xe906;" glyph-name="taxi" horiz-adv-x="892" d="M613.058 579.727c-4.632 13.893-13.518 25.976-25.397 34.539s-26.153 13.171-40.797 13.173h-21.114l-10.845 32.538c-2.646 7.943-7.725 14.853-14.515 19.748-6.792 4.896-14.953 7.529-23.327 7.527h-62.124c-8.381 0.010-16.549-2.619-23.349-7.515-6.802-4.896-11.886-11.81-14.535-19.76l-10.805-32.538h-21.114c-14.647-0.003-28.921-4.614-40.802-13.181-11.879-8.567-20.765-20.654-25.392-34.55l-17.327-51.958h-54.868v-59.813h34.931l-12.999-39.257c-6.902-6.472-12.409-14.288-16.18-22.966s-5.729-18.035-5.751-27.497v-109.657h59.813v-59.813h79.75v59.813h199.379v-59.813h79.75v59.813h59.813v109.657c-0.022 9.462-1.981 18.82-5.752 27.497s-9.278 16.494-16.181 22.966l-12.999 39.257h34.931v59.813h-54.868l-17.327 51.978zM545.689 358.28c0 7.931 3.151 15.539 8.759 21.148s13.214 8.759 21.148 8.759c7.931 0 15.537-3.151 21.145-8.759 5.61-5.608 8.761-13.216 8.761-21.148s-3.151-15.539-8.761-21.148c-5.608-5.608-13.214-8.759-21.145-8.759-7.934 0-15.539 3.151-21.148 8.759s-8.759 13.216-8.759 21.148zM345.136 567.626h201.728c2.091-0.002 4.129-0.66 5.826-1.885 1.696-1.223 2.964-2.95 3.625-4.933l37.603-112.807h-295.836l37.603 112.807c0.66 1.983 1.928 3.711 3.625 4.933 1.696 1.225 3.735 1.883 5.826 1.885zM316.404 328.373c-7.931 0-15.537 3.151-21.148 8.759-5.608 5.608-8.759 13.216-8.759 21.148s3.151 15.539 8.759 21.148c5.61 5.608 13.216 8.759 21.148 8.759 7.934 0 15.539-3.151 21.148-8.759s8.759-13.216 8.759-21.148c0-7.931-3.151-15.539-8.759-21.148s-13.214-8.759-21.148-8.759z" />
<glyph unicode="&#xe907;" glyph-name="sweets" horiz-adv-x="892" d="M610.52 659.291c65.357-83.359 33.895-220.152-76.661-241.823-14.85-3.529-30.297-3.754-45.245-0.658-14.948 3.098-29.036 9.439-41.266 18.576-12.228 9.137-22.303 20.848-29.509 34.306-7.206 13.456-11.372 28.332-12.197 43.575-0.191 23.65 8.015 46.597 23.16 64.761s36.244 30.365 59.54 34.43c89.959 14.375 106.448-112.189 16.987-118.17-5.287 0-10.357 2.101-14.097 5.84-3.74 3.737-5.84 8.809-5.84 14.097s2.101 10.36 5.84 14.099c3.74 3.74 8.809 5.84 14.097 5.84 5.29 0 10.36 2.098 14.099 5.838s5.84 8.812 5.84 14.099c0 5.287-2.101 10.36-5.84 14.097-3.74 3.74-8.809 5.84-14.099 5.84-8.352-0.105-16.59-1.955-24.186-5.426-7.599-3.474-14.386-8.493-19.932-14.74s-9.726-13.582-12.274-21.537c-2.546-7.955-3.405-16.355-2.519-24.662 0.883-8.304 3.493-16.336 7.658-23.576 4.168-7.24 9.8-13.53 16.537-18.468s14.429-8.415 22.588-10.209c8.159-1.794 16.602-1.866 24.789-0.208 26.251 3.522 50.049 17.26 66.227 38.23 16.181 20.968 23.432 47.475 20.183 73.759-10.429 111.551-151.547 151.725-228.905 70.639-29.651-31.437-46.96-72.519-48.748-115.697-1.787-43.175 12.068-85.547 39.017-119.327l-153.52-153.622c-3.632-3.761-5.641-8.797-5.596-14.023 0.045-5.228 2.142-10.23 5.839-13.927s8.697-5.792 13.925-5.838c5.227-0.045 10.264 1.964 14.025 5.596l153.559 153.66c195.29-146.143 407.526 136.434 216.523 284.63z" />
<glyph unicode="&#xe908;" glyph-name="sleep" horiz-adv-x="892" d="M539.201 327.65c-92.816 0-168.060 75.242-168.060 168.058 0 58.002 29.385 109.14 74.077 139.343-5.18 0.377-10.412 0.571-15.688 0.571-117.877 0-213.437-95.56-213.437-213.437 0-117.88 95.559-213.437 213.437-213.437 94.737 0 175.056 61.722 202.941 147.147-26.686-17.839-58.76-28.246-93.27-28.246zM617.46 599.397l52.339 87.856h-95.761v-28.038h46.425l-52.339-87.856h107.783v28.038h-58.447zM537.346 580.473h-86.588v-28.038h37.252l-40.388-67.797h88.806v28.038h-39.469l40.388 67.797zM589.525 421.123l25.562 42.91h-72.35v-28.038h23.014l-25.564-42.91h75.915v28.038h-26.576z" />
<glyph unicode="&#xe909;" glyph-name="shopping-bags" horiz-adv-x="892" d="M326.375 467.937v-199.376c0-32.976 26.837-59.813 59.813-59.813h239.252c32.976 0 59.813 26.837 59.813 59.813v199.376h-358.879zM585.564 368.25c0-43.984-35.768-79.752-79.75-79.752s-79.75 35.768-79.75 79.752v39.874h39.874v-39.874c0-21.992 17.884-39.876 39.876-39.876s39.876 17.884 39.876 39.876v39.874h39.874v-39.874zM286.499 507.813h299.065v79.75h-99.687v9.97c0 49.465-40.254 89.72-89.72 89.72s-89.72-40.254-89.72-89.72v-9.97h-99.689v-219.313c0-32.979 26.836-59.813 59.813-59.813h19.937v199.376zM346.312 597.533c0 27.494 22.37 49.844 49.846 49.844 27.473 0 49.843-22.35 49.843-49.844v-9.97h-99.689v9.97z" />
<glyph unicode="&#xe90a;" glyph-name="scooter" horiz-adv-x="892" d="M630.050 368.431l-21.219 94.423-38.192 175.049c-2.122 9.548-10.611 15.914-20.159 15.914h-59.409c-11.668 0-21.219-9.548-21.219-21.218s9.551-21.218 21.219-21.218h42.436l33.948-151.711-62.593-132.613h-122.004c-5.304 51.985-48.803 91.236-101.847 91.236-8.489 0-15.913-7.424-15.913-15.913 0-8.486 7.424-15.915 15.913-15.915 36.070 0 65.775-26.521 70.020-60.471h-22.279c-8.486 24.401-31.828 41.376-59.411 41.376-33.949 0-62.593-27.583-62.593-62.593 0-35.012 27.584-62.593 62.593-62.593 27.583 0 50.925 16.973 59.411 41.374l187.782 1.062c8.486 0 14.853 4.242 19.095 11.668l45.621 96.543 7.426-35.010c-16.975-10.608-28.646-30.765-28.646-53.045 0-33.95 27.583-62.593 62.596-62.593 35.010 0 62.593 27.581 62.593 62.593 1.062 33.948-23.341 60.471-55.167 63.653zM270.401 275.072c-16.975 0-30.767 13.791-30.767 30.768 0 16.973 13.792 30.765 30.767 30.765 9.546 0 16.973-4.244 23.339-10.608h-12.731c-11.671 0-21.219-9.549-21.219-21.219s9.549-21.217 21.219-21.217h12.731c-5.304-4.244-13.793-8.489-23.339-8.489zM623.684 275.072c-16.975 0-30.768 13.791-30.768 30.768 0 6.362 2.122 12.728 5.304 16.973l2.125-10.611c2.12-9.546 10.608-15.913 20.157-15.913 1.060 0 3.182 0 4.242 0 11.671 2.122 18.037 13.793 15.915 24.401l-2.122 11.671c9.549-5.304 16.973-15.913 16.973-27.583-1.057-15.915-14.85-29.706-31.825-29.706z" />
<glyph unicode="&#xe90b;" glyph-name="school" horiz-adv-x="892" d="M293.338 467.938h-86.59c0.032 26.43 10.545 51.767 29.233 70.455s44.026 29.201 70.456 29.234h119.626v87.007c0.002 5.488 1.39 10.887 4.034 15.697s6.455 8.876 11.087 11.821c4.632 2.945 9.929 4.676 15.405 5.031 5.479 0.355 10.955-0.677 15.927-3.001l63.801-29.907c2.885-1.788 5.266-4.283 6.917-7.249s2.517-6.304 2.517-9.698c0-3.395-0.866-6.733-2.517-9.698s-4.031-5.461-6.917-7.249l-70.381-32.817v-19.937h119.626c26.43-0.033 51.767-10.546 70.457-29.234 18.688-18.688 29.201-44.025 29.232-70.455h-86.59c-15.575-0.005-30.541 6.070-41.709 16.927l-54.55 59.394c-15.245 14.704-35.634 22.87-56.815 22.758-21.181-0.11-41.479-8.491-56.571-23.356l-53.392-58.198c-11.235-11.187-26.435-17.485-42.288-17.525zM446 308.436c-5.287 0-10.36-2.101-14.099-5.838-3.737-3.74-5.838-8.812-5.838-14.099v-79.75h39.874v79.75c0 5.287-2.101 10.36-5.838 14.099-3.74 3.737-8.812 5.838-14.099 5.838zM598.662 428.062h86.59v-159.5c0-15.865-6.302-31.079-17.518-42.295-11.219-11.216-26.433-17.518-42.295-17.518h-119.626v79.75c0 15.862-6.302 31.076-17.518 42.295-11.219 11.216-26.433 17.518-42.295 17.518s-31.076-6.302-42.295-17.518c-11.216-11.219-17.518-26.433-17.518-42.295v-79.75h-119.626c-15.862 0-31.077 6.302-42.294 17.518s-17.519 26.43-17.519 42.295v159.5h86.59c13.233-0.005 26.335 2.629 38.539 7.747s23.267 12.618 32.538 22.061l53.394 58.198c7.539 7.072 17.458 11.058 27.796 11.171 10.336 0.11 20.339-3.663 28.028-10.573l54.59-59.394c9.228-9.283 20.205-16.642 32.297-21.655 12.089-5.015 25.055-7.582 38.142-7.556zM326.374 268.562c0 5.287-2.101 10.357-5.84 14.097s-8.809 5.84-14.097 5.84h-19.939c-5.287 0-10.357-2.101-14.097-5.84s-5.84-8.809-5.84-14.097c0-5.287 2.101-10.36 5.84-14.099s8.809-5.84 14.097-5.84h19.939c5.287 0 10.357 2.101 14.097 5.84s5.84 8.812 5.84 14.099zM326.374 348.312c0 5.287-2.101 10.36-5.84 14.099-3.74 3.737-8.809 5.838-14.097 5.838h-19.939c-5.287 0-10.357-2.101-14.097-5.838-3.74-3.74-5.84-8.812-5.84-14.099s2.101-10.36 5.84-14.099c3.74-3.737 8.809-5.838 14.097-5.838h19.939c5.287 0 10.357 2.101 14.097 5.838 3.74 3.74 5.84 8.812 5.84 14.099zM485.877 428.062c0 7.888-2.34 15.597-6.721 22.155-4.383 6.558-10.611 11.668-17.896 14.685-7.285 3.019-15.303 3.809-23.040 2.271-7.735-1.538-14.838-5.338-20.415-10.915-5.577-5.575-9.374-12.68-10.912-20.415-1.541-7.735-0.749-15.752 2.268-23.040 3.017-7.285 8.13-13.513 14.685-17.896 6.558-4.381 14.269-6.718 22.155-6.718 10.575 0 20.717 4.201 28.196 11.678 7.479 7.479 11.68 17.621 11.68 28.196zM625.44 268.562c0 5.287-2.101 10.357-5.84 14.097s-8.809 5.84-14.097 5.84h-19.939c-5.287 0-10.357-2.101-14.097-5.84s-5.84-8.809-5.84-14.097c0-5.287 2.101-10.36 5.84-14.099s8.809-5.84 14.097-5.84h19.939c5.287 0 10.357 2.101 14.097 5.84s5.84 8.812 5.84 14.099zM605.503 368.249h-19.939c-5.287 0-10.357-2.101-14.097-5.838-3.74-3.74-5.84-8.812-5.84-14.099s2.101-10.36 5.84-14.099c3.74-3.737 8.809-5.838 14.097-5.838h19.939c5.287 0 10.357 2.101 14.097 5.838 3.74 3.74 5.84 8.812 5.84 14.099s-2.101 10.36-5.84 14.099c-3.74 3.737-8.809 5.838-14.097 5.838z" />
<glyph unicode="&#xe90c;" glyph-name="run" horiz-adv-x="892" d="M341.050 598.932h169.049c4.443 0 8.041 3.601 8.041 8.044s-3.598 8.043-8.041 8.043h-169.049c-4.443 0-8.044-3.6-8.044-8.043s3.601-8.044 8.044-8.044zM189.861 520.294h169.047c4.443 0 8.044 3.601 8.044 8.041 0 4.443-3.601 8.041-8.044 8.041h-169.047c-4.442 0-8.043-3.598-8.043-8.041 0-4.441 3.601-8.041 8.043-8.041zM235.243 437.542c0-4.443 3.601-8.044 8.043-8.044h169.046c4.443 0 8.044 3.601 8.044 8.044s-3.601 8.041-8.044 8.041h-169.046c-4.442 0-8.043-3.598-8.043-8.041zM331.989 344.070h-151.89c-4.442 0-8.043-3.601-8.043-8.044 0-4.441 3.601-8.041 8.043-8.041h151.89c4.443 0 8.044 3.601 8.044 8.041 0 4.443-3.601 8.044-8.044 8.044zM605.29 548.507c24.26 0 43.927 19.671 43.927 43.932s-19.667 43.93-43.927 43.93c-24.265 0-43.936-19.67-43.936-43.93-0.002-24.26 19.669-43.932 43.936-43.932zM677.551 561.156c-25.224-35.333-59.002-39.424-95.349-17.846-2.474 1.467-13.453 7.515-15.884 8.96-58.471 34.711-116.875 21.1-156.043-33.751-16.645-23.329 21.851-45.441 38.307-22.384 20.238 28.339 45.97 36.539 74.113 27.564-14.41-25.014-27.009-49.875-44.786-85.195-17.781-35.321-57.043-63.529-94.765-41.467-27.22 15.91-51.765-23.196-24.629-39.056 51.501-30.098 111.889-11.616 142.716 27.509 1.069-0.572 2.199-1.086 3.438-1.519 25.184-8.776 58.196-32.134 68.254-40.412 10.056-8.281 27.335-50.454 37.594-71.644 12.446-25.712 52.643-6.986 40.151 18.836-11.63 24.042-31.153 72.027-46.379 84.167-12.214 9.738-35.929 27.859-56.040 38.139 13.606 26.356 27.775 52.427 42.69 78.049 47.539-14.568 92.727 2.591 124.911 47.673 16.657 23.325-21.829 45.439-38.3 22.377z" />
<glyph unicode="&#xe90d;" glyph-name="repair" horiz-adv-x="892" d="M682.325 547.187c-3.189 17.925-16.049 32.479-33.536 37.981-17.724 5.503-36.883 0.878-49.963-12.202l-39.395-39.395c-4.029-4.048-9.132-6.161-15.094-5.823-3.309 0.179-9.57 1.337-14.554 7.438-6.24 7.615-4.687 20.435 3.469 28.591l37.364 37.383c13.099 13.098 17.784 32.258 12.199 50.003-5.503 17.485-20.057 30.325-37.979 33.495-21.573 3.828-43.604 3.429-65.495-1.236-63.902-13.597-115.958-65.655-129.577-129.555-5.622-26.478-5.084-52.954 1.656-78.673 1.117-4.268 0.318-8.295-2.172-10.788l-117.473-117.492c-29.768-29.746-33.058-77.537-7.477-108.759 14.314-17.506 41.907-29.409 61.825-29.409 21.095 0 41.472 8.393 56.425 23.368l119.507 119.485c2.491 2.493 6.498 3.33 10.805 2.175 25.66-6.721 52.119-7.259 78.676-1.636 63.9 13.599 115.956 65.656 129.555 129.555 4.644 21.913 5.063 43.924 1.235 65.495zM622.572 494.133c-8.752-41.171-42.307-74.745-83.478-83.499-17.308-3.708-34.512-3.369-51.121 0.998-25.062 6.52-50.561-0.1-68.228-17.764l-119.507-119.487c-4.027-4.046-9.171-6.18-15.092-5.821-3.309 0.179-9.57 1.335-14.554 7.436-6.242 7.618-4.687 20.437 3.469 28.591l117.473 117.494c17.683 17.683 24.322 43.185 17.764 68.225-4.347 16.628-4.687 33.816-0.998 51.102 8.752 41.171 42.329 74.745 83.499 83.498 6.819 1.436 13.657 2.273 20.456 2.472l-21.293-21.293c-29.768-29.746-33.057-77.537-7.477-108.759 14.314-17.506 35.409-28.193 57.88-29.308 22.628-1.117 44.46 7.357 60.349 23.267l23.308 23.306c-0.199-6.797-1.017-13.637-2.471-20.456h0.019z" />
<glyph unicode="&#xe90e;" glyph-name="pt" horiz-adv-x="892" d="M277.168 511.781c4.484-10.424 11.936-19.296 21.432-25.507s20.614-9.484 31.959-9.415h63.49l-32.754-65.656c-1.098-2.175-1.627-4.591-1.536-7.027 0.089-2.433 0.792-4.804 2.046-6.893s3.015-3.828 5.12-5.051c2.105-1.225 4.488-1.897 6.924-1.952h43.288c1.9-0.012 3.783 0.352 5.541 1.072 1.759 0.718 3.357 1.775 4.706 3.113l82.25 82.394h109.523c7.654 0 14.994 3.041 20.406 8.453 5.414 5.414 8.453 12.755 8.453 20.408 0 15.307-6.079 29.99-16.906 40.814-10.824 10.824-25.504 16.906-40.814 16.906h-237.515l-20.346 30.447c-2.644 3.964-6.23 7.211-10.434 9.45-4.206 2.242-8.9 3.407-13.664 3.393h-49.927c-2.383-0.002-4.728-0.593-6.823-1.723-2.098-1.127-3.883-2.759-5.199-4.744-1.313-1.986-2.117-4.266-2.335-6.637-0.22-2.373 0.153-4.761 1.081-6.955l32.033-74.891zM561.438 390.281h-97.546l-16.161-16.161c-8.111-8.12-19.114-12.688-30.591-12.7h-43.29c-7.371 0.002-14.618 1.883-21.059 5.469-6.438 3.586-11.855 8.757-15.738 15.023-1.514 2.663-2.771 5.467-3.751 8.369h-89.322v-144.3h346.318c15.31 0 29.99 6.082 40.814 16.908 10.826 10.824 16.908 25.504 16.908 40.814 0 22.961-9.123 44.982-25.361 61.22-16.236 16.236-38.256 25.358-61.22 25.358zM287.269 303.703c-3.826 0-7.496 1.519-10.202 4.225-2.708 2.706-4.228 6.376-4.228 10.204 0 3.826 1.519 7.496 4.228 10.202 2.706 2.708 6.376 4.228 10.202 4.228 3.828 0 7.498-1.519 10.204-4.228 2.706-2.706 4.228-6.376 4.228-10.202 0-3.828-1.522-7.498-4.228-10.204s-6.376-4.225-10.204-4.225zM344.989 303.703c-3.826 0-7.496 1.519-10.202 4.225-2.708 2.706-4.228 6.376-4.228 10.204 0 3.826 1.519 7.496 4.228 10.202 2.706 2.708 6.376 4.228 10.202 4.228 3.828 0 7.498-1.519 10.204-4.228 2.706-2.706 4.225-6.376 4.225-10.202 0-3.828-1.519-7.498-4.225-10.204s-6.376-4.225-10.204-4.225zM402.708 303.703c-3.826 0-7.496 1.519-10.202 4.225-2.708 2.706-4.228 6.376-4.228 10.204 0 3.826 1.519 7.496 4.228 10.202 2.706 2.708 6.376 4.228 10.202 4.228 3.828 0 7.498-1.519 10.204-4.228 2.706-2.706 4.228-6.376 4.228-10.202 0-3.828-1.522-7.498-4.228-10.204s-6.376-4.225-10.204-4.225zM460.428 303.703c-3.826 0-7.496 1.519-10.202 4.225-2.708 2.706-4.228 6.376-4.228 10.204 0 3.826 1.519 7.496 4.228 10.202 2.706 2.708 6.376 4.228 10.202 4.228 3.828 0 7.498-1.519 10.204-4.228 2.706-2.706 4.225-6.376 4.225-10.202 0-3.828-1.519-7.498-4.225-10.204s-6.376-4.225-10.204-4.225zM547.009 303.703c-7.654 0-14.996 3.039-20.408 8.453-5.412 5.412-8.453 12.752-8.453 20.406s3.041 14.994 8.453 20.406c5.412 5.414 12.755 8.453 20.408 8.453h14.429c15.307 0 29.99-6.079 40.814-16.906 10.824-10.824 16.906-25.504 16.906-40.812h-72.149zM379.333 592.299h101.010l-53.392 53.536c-2.615 2.597-6.127 4.094-9.812 4.185h-43.29c-2.46-0.007-4.876-0.644-7.022-1.848-2.144-1.204-3.945-2.937-5.232-5.033s-2.017-4.487-2.12-6.945c-0.103-2.458 0.426-4.901 1.531-7.097l18.327-36.797z" />
<glyph unicode="&#xe90f;" glyph-name="pray" horiz-adv-x="892" d="M685.174 597.534v-243.858c0-14.793-5.443-29.009-15.391-40.075l-67.61-74.946h-53.691l91.693 101.642c3.309 3.689 5.144 8.434 5.144 13.379v243.858c0 10.986-8.953 19.937-19.939 19.937-10.984 0-19.937-8.95-19.937-19.937v-159.502h-0.1c0-13.637-4.625-27.294-13.877-38.319l-51.399-53.514-28.729 27.634 50.501 52.516c2.591 3.129 3.888 7.357 3.828 11.683h-0.079v1.457c-0.359 4.225-2.015 8.472-5.065 11.881-7.297 8.156-19.918 8.833-28.033 1.536l-57.978-53.353c7.297-10.108 11.345-22.37 11.345-35.010v-125.887h-39.876v125.887c0 5.563-2.352 10.905-6.441 14.654l-80.269 73.869c-7.934 7.118-20.535 6.438-27.851-1.715-6.541-7.316-6.721-18.501-0.419-26.019l51.238-53.253-28.729-27.634-52.157 54.25c-9.73 11.544-14.554 25.5-14.654 39.316h-0.22v159.521c0 10.986-8.95 19.937-19.937 19.937s-19.937-8.95-19.937-19.937v-243.858c0-4.945 1.833-9.69 5.144-13.379l91.693-101.642h-53.693l-67.609 74.946c-9.949 11.065-15.392 25.282-15.392 40.075v243.858c0 32.977 26.836 59.813 59.813 59.813 32.979 0 59.813-26.836 59.813-59.813v-103.099c19.899 6.979 42.927 3.211 59.734-11.821l59.892-55.109 59.715 54.93c16.946 15.171 39.993 18.961 59.911 12.001v103.099c0 32.977 26.837 59.813 59.813 59.813 32.979 0 59.813-26.836 59.813-59.813h-0.079z" />
<glyph unicode="&#xe910;" glyph-name="police-badge" horiz-adv-x="892" d="M650.56 268.558v-59.813h-409.121v59.813c0 45.379 34.139 84.356 83.576 96.16l120.985-106.13 120.985 106.13c49.437-11.805 83.576-50.762 83.576-96.16zM582.327 504.899c-1.773-64.617-62.232-116.714-136.328-116.714s-134.556 52.097-136.328 116.714c24.275-7.178 69.732-17.025 136.328-17.025s112.054 9.848 136.328 17.025zM484.593 683.082c-25.344 5.563-51.844 5.563-77.188 0l-143.238-35.708v-59.814l45.458-19.937v-19.937c0 0 45.458-19.939 136.374-19.939s136.374 19.939 136.374 19.939v19.937l45.458 19.937v59.814l-143.238 35.708zM491.457 606.203c0-30.165-33.16-44.221-43.343-47.79l-2.115-0.737-2.022 0.897c-10.183 4.464-43.436 21.114-43.436 47.65v28.91c0 3.808 2.773 7.178 6.91 8.394l38.548 11.205 38.548-11.205c4.137-1.196 6.91-4.566 6.91-8.394v-28.929z" />
<glyph unicode="&#xe911;" glyph-name="parking" horiz-adv-x="892" d="M446 687.252c-131.929 0-239.252-107.324-239.252-239.252s107.324-239.252 239.252-239.252c131.929 0 239.252 107.324 239.252 239.252s-107.324 239.252-239.252 239.252zM475.906 408.124h-89.72v-79.75c0-11.006-8.912-19.937-19.937-19.937-11.027 0-19.939 8.931-19.939 19.937v179.439c0 43.982 35.768 79.75 79.752 79.75h49.843c49.465 0 89.72-40.254 89.72-89.72s-40.254-89.72-89.72-89.72zM525.75 497.843c0-27.473-22.349-49.843-49.843-49.843h-89.72v59.813c0 21.992 17.884 39.876 39.876 39.876h49.843c27.495 0 49.843-22.37 49.843-49.846z" />
<glyph unicode="&#xe912;" glyph-name="nature" horiz-adv-x="892" d="M664.778 408.52c-42.704 0.514-84.559-11.922-120.054-35.668s-62.962-57.689-78.786-97.357v134.819c27.844 4.732 53.121 19.152 71.362 40.714s28.275 48.877 28.327 77.118c0 79.752-77.597 142.117-78.056 142.556-24.956-50.702-39.111-106.034-41.57-162.493h-39.876c2.395 61.945 17.731 122.702 45.020 178.363-8.781 0.856-17.64-0.226-25.956-3.168s-15.884-7.673-22.174-13.859c-37.9-38.679-76.64-85.713-76.64-141.399 0.053-28.241 10.087-55.557 28.327-77.118s43.518-35.981 71.362-40.714v-134.819c-15.824 39.668-43.29 73.611-78.786 97.357s-77.35 36.182-120.054 35.668h-20.476l2.532-22.408c15.871-139.984 147.001-176.968 213.991-176.968h45.458c67.091 0 198.101 36.984 213.951 176.968l2.572 22.408h-20.475z" />
<glyph unicode="&#xe913;" glyph-name="music" horiz-adv-x="892" d="M406.117 368.258c22.021 0 39.874 17.853 39.874 39.874 0 22.023-17.853 39.876-39.874 39.876-22.023 0-39.876-17.853-39.876-39.876 0-22.021 17.853-39.874 39.876-39.874zM320.522 362.416c-3.761 3.632-8.797 5.642-14.025 5.596s-10.228-2.141-13.924-5.838c-3.696-3.696-5.792-8.699-5.838-13.924-0.045-5.228 1.964-10.264 5.596-14.025l39.874-39.876c1.84-1.904 4.041-3.424 6.472-4.467 2.433-1.046 5.051-1.596 7.697-1.62 2.649-0.022 5.273 0.483 7.723 1.486s4.677 2.481 6.548 4.354c1.873 1.871 3.352 4.098 4.354 6.548s1.507 5.075 1.486 7.723c-0.024 2.646-0.574 5.264-1.62 7.697-1.043 2.431-2.562 4.632-4.467 6.472l-39.876 39.874zM674.914 676.931c-3.271 3.275-7.156 5.872-11.434 7.645-4.275 1.772-8.86 2.685-13.489 2.685-4.627 0-9.211-0.912-13.487-2.685-4.278-1.772-8.163-4.37-11.434-7.645l-4.268-4.267c-14.48-14.521-25.007-32.503-30.584-52.237l-59.315-59.315c-21.887 17.776-49.437 27.088-77.618 26.239-28.184-0.849-55.124-11.802-75.9-30.864-3.187-3.17-6.151-6.553-8.874-10.128-3.57-5.149-8.163-9.503-13.496-12.793-5.331-3.292-11.283-5.445-17.487-6.328-33.825-2.29-65.687-16.719-89.72-40.632-58.935-58.957-53.831-160 11.465-225.297 32.5-33.12 76.795-52.018 123.196-52.557 18.891-0.251 37.644 3.249 55.174 10.295 17.528 7.046 33.486 17.501 46.946 30.758 23.916 24.031 38.345 55.892 40.632 89.72 0.885 6.201 3.039 12.154 6.328 17.485 3.29 5.333 7.647 9.927 12.793 13.499 3.574 2.723 6.96 5.687 10.128 8.871 19.040 20.789 29.978 47.724 30.828 75.9s-8.45 55.722-26.201 77.621l59.313 59.313c19.736 5.577 37.716 16.106 52.238 30.586l4.266 4.266c3.278 3.273 5.878 7.158 7.651 11.437 1.775 4.278 2.689 8.864 2.689 13.496s-0.914 9.217-2.689 13.496c-1.773 4.278-4.374 8.164-7.651 11.437zM526.279 407.594c-1.869-1.897-3.866-3.663-5.981-5.285-9.709-6.886-17.836-15.767-23.837-26.047s-9.735-21.724-10.955-33.565c-1.589-24.327-11.91-47.26-29.069-64.579-43.364-43.364-119.126-38.28-168.831 11.443-49.705 49.726-54.949 125.45-11.506 168.833 17.319 17.157 40.254 27.481 64.579 29.069 11.841 1.22 23.286 4.955 33.567 10.953 10.281 6 19.162 14.128 26.047 23.839 1.62 2.113 3.385 4.11 5.283 5.981 6.433 6.314 14.058 11.286 22.43 14.625 8.371 3.342 17.324 4.984 26.337 4.833 17.166-0.218 33.897-5.429 48.15-14.994l-30.722-30.722c-1.904-1.84-3.424-4.041-4.469-6.472-1.043-2.433-1.593-5.051-1.617-7.697-0.024-2.649 0.481-5.273 1.483-7.723s2.483-4.677 4.357-6.548c1.871-1.871 4.096-3.352 6.548-4.354 2.45-1.002 5.075-1.507 7.721-1.483 2.649 0.022 5.264 0.572 7.697 1.617s4.632 2.562 6.472 4.467l30.665 30.665c10.501-14.192 15.8-31.565 15.008-49.2s-7.625-34.464-19.356-47.657z" />
<glyph unicode="&#xe914;" glyph-name="museum" horiz-adv-x="892" d="M671.126 245.995h-450.246v-37.247h450.246v37.247zM646.605 311.284h-401.212v-37.247h401.212v37.247zM445.999 687.253l-225.124-108.494v-28.758h450.248v28.758l-225.124 108.494zM239.821 521.963v-34.591h35.663v-148.052h71.993v148.052h62.526v-148.052h71.993v148.052h62.526v-148.052h71.991v148.052h35.663v34.591h-412.356z" />
<glyph unicode="&#xe915;" glyph-name="mountain" horiz-adv-x="892" d="M605.503 527.751c-21.152 0-41.436 8.403-56.394 23.358-14.956 14.958-23.358 35.242-23.358 56.393s8.403 41.436 23.358 56.392c14.958 14.956 35.242 23.358 56.394 23.358 21.15 0 41.436-8.402 56.392-23.358s23.358-35.241 23.358-56.392c0-21.152-8.403-41.435-23.358-56.393-14.956-14.956-35.242-23.358-56.392-23.358zM426.064 208.748v24.303l85.272 186.279c3.988 8.376 10.269 15.451 18.114 20.406 7.843 4.953 16.932 7.582 26.208 7.582 9.278 0 18.365-2.629 26.21-7.582 7.845-4.955 14.125-12.030 18.111-20.406l85.274-185.401v-24.303l-259.189-0.878zM450.946 556.841c-4.307 9.072-11.097 16.738-19.585 22.105-8.486 5.369-18.324 8.216-28.366 8.216s-19.879-2.847-28.366-8.216c-8.489-5.366-15.279-13.032-19.585-22.105l-148.296-323.79v-24.303h179.439v39.876l88.923 187.414c4.663 10.032 11.144 19.109 19.119 26.777l-43.283 94.026z" />
<glyph unicode="&#xe916;" glyph-name="local" horiz-adv-x="892" d="M284.623 238.654h322.991c8.718 0 17.092 3.469 23.267 9.63 6.161 6.175 9.63 14.549 9.63 23.267v180.351c16.238 10.9 27.469 28.682 29.517 49.138 0.017 0.060 0.017 0.105 0.017 0.148 0.507 5.563-0.419 11.156-2.692 16.255-7.536 17.3-40.869 92.292-53.353 120.359-5.28 11.888-17.063 19.544-30.057 19.544h-275.738c-13.008 0-24.791-7.656-30.072-19.544-12.455-28.053-45.757-102.968-53.473-120.299-2.273-5.098-3.213-10.721-2.706-16.298 0-0.091 0.014-0.165 0.014-0.256 2.17-20.47 13.475-38.235 29.758-49.121v-180.277c0-8.718 3.469-17.092 9.63-23.267 6.175-6.161 14.549-9.63 23.267-9.63zM431.165 268.56h176.449c0.792 0 1.555 0.313 2.108 0.883 0.569 0.553 0.883 1.316 0.883 2.108v169.391c-2.467-0.285-4.979-0.419-7.522-0.419-21.128 0-40.001 9.764-52.336 25.016-12.336-15.252-31.208-25.016-52.336-25.016s-40.001 9.764-52.336 25.016c-12.336-15.252-31.208-25.016-52.336-25.016s-40.001 9.764-52.336 25.016c-12.336-15.252-31.208-25.016-52.336-25.016-2.512 0-4.993 0.134-7.431 0.404v-169.376c0-0.792 0.313-1.555 0.883-2.108 0.553-0.569 1.316-0.883 2.108-0.883h26.916v116.636c0 8.718 3.469 17.092 9.63 23.267 6.175 6.161 14.549 9.63 23.267 9.63h53.832c8.718 0 17.092-3.469 23.267-9.63 6.161-6.175 9.63-14.549 9.63-23.267v-116.636zM397.041 627.439h34.079v-119.626c0-20.636-16.748-37.383-37.383-37.383-19.887 0-36.156 15.551-37.323 35.156l40.627 121.854zM526.627 627.439l38.309-114.901c0.538-1.644 0.794-3.318 0.763-4.964 0.134-20.53 16.822-37.144 37.383-37.144 19.32 0 35.244 14.683 37.189 33.495v0.060c0.014 0.447-0.060 0.897-0.239 1.316-0.014 0.031-0.031 0.060-0.045 0.091-7.582 17.375-40.852 92.246-53.308 120.268-0.479 1.077-1.555 1.779-2.737 1.779h-57.315zM580.698 331.259v53.937c0 18.169-14.728 32.897-32.897 32.897-15.64 0-38.192 0-53.832 0-18.169 0-32.897-14.728-32.897-32.897v-53.937c0-18.169 14.728-32.897 32.897-32.897h53.832c18.169 0 32.897 14.728 32.897 32.897z" />
<glyph unicode="&#xe917;" glyph-name="kart" horiz-adv-x="892" d="M629.177 419.963c-30.969 0-56.074-25.105-56.074-56.074s25.105-56.076 56.074-56.076c30.971 0 56.076 25.107 56.076 56.076s-25.105 56.074-56.076 56.074zM643.197 349.869h-28.038v28.038h28.038v-28.038zM360.954 349.869c0-23.224-18.829-42.056-42.056-42.056s-42.056 18.832-42.056 42.056c0 23.227 18.829 42.056 42.056 42.056s42.056-18.829 42.056-42.056zM629.177 448.001c9.881 0 19.226-2.022 28.038-5.165v61.241h-29.457c-5.587 27.423-27.232 49.068-54.655 54.652v29.459h-28.038v-98.132c0-23.188-18.865-42.056-42.056-42.056h-85.98c-21.387 0-38.9 16.099-41.525 36.785l41.525 41.522 18.126-18.126 19.822 19.824-56.074 56.074-19.824-19.822 18.126-18.126-42.056-42.056h-22.234c-69.57 0-126.167-56.598-126.167-126.17v-42.056h43.477c-0.928 4.531-1.421 9.218-1.421 14.018 0 38.646 31.447 70.094 70.094 70.094s70.094-31.447 70.094-70.094c0-4.799-0.493-9.486-1.421-14.018h162.665c-3.144 8.812-5.17 18.159-5.17 28.038 0 46.381 37.73 84.112 84.112 84.112z" />
<glyph unicode="&#xe918;" glyph-name="karaoke" horiz-adv-x="892" d="M392.957 472.114c-18.97 23.952-28.363 54.097-26.356 84.585s15.274 59.142 37.223 80.399l12.621 12.64c21.258 21.939 49.908 35.198 80.391 37.202s60.624-7.389 84.573-26.356c12.81-10.622 23.239-23.821 30.61-38.74s11.52-31.222 12.176-47.85c0.701-16.556-2.041-33.077-8.048-48.52-6.010-15.441-15.157-29.471-26.863-41.199l-19.937-19.937c-22.471-22.423-52.911-35.027-84.655-35.050-1.715 0-3.431 0.038-5.144 0.12-16.621 0.651-32.919 4.787-47.836 12.144-14.917 7.359-28.122 17.772-38.754 30.562zM580.71 368.297c-13.731 0.033-27.33-2.656-40.015-7.907-12.688-5.254-24.205-12.967-33.895-22.698-28.15-28.311-61.639-50.757-98.524-66.038s-76.439-23.093-116.363-22.983h-22.93c-4.424-0.007-8.749 1.299-12.432 3.754-3.68 2.455-6.551 5.945-8.245 10.032-1.696 4.086-2.139 8.584-1.278 12.924 0.864 4.338 2.995 8.324 6.125 11.451l13.956 13.956c34.617 2.323 67.211 17.147 91.713 41.711l60.89 60.89c-22.112 9.824-41.699 24.55-57.279 43.065-8.709 10.439-15.965 22.009-21.573 34.393l-60.351-60.292c-24.571-24.497-39.395-57.095-41.709-91.715l-13.957-13.956c-8.664-8.718-14.552-19.805-16.922-31.866s-1.114-24.552 3.608-35.902c4.722-11.348 12.698-21.042 22.923-27.861 10.226-6.821 22.241-10.46 34.532-10.46h22.93c45.161-0.122 89.899 8.714 131.625 25.997 41.723 17.281 79.606 42.668 111.456 74.69 9.041 9.039 20.559 15.197 33.098 17.69 12.542 2.495 25.538 1.218 37.352-3.673 11.812-4.893 21.911-13.176 29.017-23.803 7.106-10.63 10.903-23.126 10.908-35.912v-35.050c0-5.287 2.101-10.36 5.84-14.099s8.809-5.84 14.097-5.84c5.29 0 10.36 2.101 14.099 5.84s5.84 8.812 5.84 14.099v35.050c-0.038 27.71-11.063 54.274-30.66 73.867-19.597 19.595-46.164 30.615-73.874 30.646z" />
<glyph unicode="&#xe919;" glyph-name="jogging" horiz-adv-x="892" d="M655.347 438.031c0-7.931-3.151-15.537-8.759-21.148-5.608-5.608-13.216-8.759-21.148-8.759h-57.222c-12.042 0.038-23.87 3.175-34.347 9.113-10.474 5.936-19.245 14.47-25.466 24.782l-24.423 40.553-35.689-86.987 52.119-29.648c10.723-6.108 19.638-14.948 25.839-25.617 6.201-10.671 9.47-22.791 9.47-35.134v-66.531c0-7.931-3.151-15.539-8.759-21.148s-13.216-8.759-21.148-8.759c-7.931 0-15.539 3.151-21.148 8.759s-8.759 13.216-8.759 21.148v66.531c0 1.759-0.467 3.484-1.347 5.003-0.883 1.519-2.151 2.78-3.677 3.651l-81.386 46.314c-14.202 8.644-24.865 22.061-30.079 37.852-5.213 15.788-4.637 32.916 1.629 48.319l25.141 61.488h-35.17c-1.852-0.002-3.668-0.519-5.24-1.495-1.574-0.976-2.847-2.371-3.673-4.027l-28.849-57.7c-3.548-7.096-9.771-12.491-17.298-15.001s-15.74-1.926-22.837 1.622c-7.096 3.548-12.494 9.771-15.001 17.298-2.51 7.527-1.926 15.74 1.622 22.837l28.849 57.7c5.766 11.618 14.669 21.392 25.7 28.208 11.034 6.819 23.755 10.412 36.725 10.372h112.13c12.042-0.036 23.87-3.175 34.347-9.111 10.474-5.938 19.245-14.472 25.466-24.784l36.685-60.969c0.89-1.476 2.148-2.699 3.651-3.543 1.503-0.847 3.199-1.287 4.921-1.282h57.222c7.931 0 15.539-3.151 21.148-8.759s8.759-13.214 8.759-21.148zM357.418 351.302c-3.646 1.459-7.546 2.187-11.475 2.139-3.926-0.050-7.807-0.871-11.417-2.419s-6.881-3.792-9.623-6.603c-2.744-2.811-4.907-6.137-6.364-9.783-0.742-1.849-2.017-3.433-3.665-4.548-1.651-1.115-3.596-1.713-5.587-1.713h-42.726c-7.931 0-15.539-3.151-21.148-8.759s-8.759-13.216-8.759-21.148c0-7.931 3.151-15.539 8.759-21.148s13.216-8.759 21.148-8.759h42.726c13.958-0.045 27.605 4.115 39.163 11.939 11.558 7.826 20.492 18.949 25.636 31.923 1.457 3.649 2.184 7.546 2.137 11.475s-0.871 7.807-2.416 11.417c-1.548 3.61-3.792 6.881-6.606 9.625-2.811 2.742-6.134 4.905-9.783 6.362zM485.878 587.564c9.857 0 19.494 2.924 27.691 8.4 8.197 5.479 14.585 13.262 18.358 22.37s4.761 19.13 2.838 28.799c-1.924 9.669-6.67 18.55-13.642 25.521s-15.853 11.718-25.521 13.641c-9.668 1.923-19.69 0.936-28.799-2.837s-16.891-10.161-22.37-18.358c-5.476-8.197-8.4-17.834-8.4-27.692 0-13.22 5.252-25.898 14.599-35.246s22.026-14.599 35.247-14.599z" />
<glyph unicode="&#xe91a;" glyph-name="hospital" horiz-adv-x="892" d="M545.689 687.253h-199.379c-32.976 0-59.813-26.836-59.813-59.813v-418.692h319.005v418.692c0 32.977-26.837 59.813-59.813 59.813zM426.063 308.437h-59.813v39.874h59.813v-39.874zM426.063 388.187h-59.813v39.876h59.813v-39.876zM386.187 527.75v39.876h39.876v39.875h39.874v-39.875h39.876v-39.876h-39.876v-39.874h-39.874v39.874h-39.876zM525.75 308.437h-59.813v39.874h59.813v-39.874zM525.75 388.187h-59.813v39.876h59.813v-39.876zM685.252 507.813v-299.065h-39.876v355.211c23.148-8.254 39.876-30.186 39.876-56.145zM246.624 563.959v-355.211h-39.876v299.065c0 25.959 16.728 47.891 39.876 56.145z" />
<glyph unicode="&#xe91b;" glyph-name="hiking" horiz-adv-x="892" d="M398.456 304.448l-11.963-79.233c-0.919-4.503-3.366-8.551-6.926-11.458-3.562-2.905-8.017-4.493-12.613-4.491-1.34-0.005-2.675 0.129-3.988 0.397-2.565 0.522-5.003 1.543-7.175 3.007-2.17 1.462-4.031 3.34-5.479 5.522-1.445 2.182-2.448 4.63-2.948 7.199s-0.49 5.213 0.031 7.778l11.963 79.233c1.057 5.185 4.132 9.738 8.546 12.654 4.414 2.919 9.807 3.964 14.992 2.907s9.735-4.132 12.654-8.546c2.919-4.412 3.964-9.785 2.907-14.97zM406.251 637.408c0 9.858 2.924 19.495 8.4 27.692s13.262 14.586 22.37 18.358c9.108 3.773 19.131 4.76 28.799 2.837s18.549-6.671 25.521-13.641c6.969-6.971 11.719-15.852 13.642-25.521 1.921-9.669 0.935-19.691-2.838-28.799s-10.161-16.891-18.358-22.37c-8.197-5.476-17.834-8.4-27.693-8.4-13.219 0-25.897 5.252-35.244 14.599s-14.599 22.026-14.599 35.246zM605.627 547.689c-5.287 0-10.357-2.101-14.097-5.84s-5.84-8.812-5.84-14.099v-39.874h-47.492l-23.346 46.692c-4.969 9.934-12.604 18.288-22.052 24.126s-20.334 8.931-31.443 8.931h-46.774c-7.001 0.002-13.783-2.455-19.159-6.938-5.378-4.486-9.013-10.716-10.269-17.604l-20.913-114.841c-2.318-11.695-1.074-23.815 3.572-34.797 4.646-10.979 12.479-20.313 22.485-26.791l75.764-49.107v-88.863c0-5.287 2.101-10.357 5.84-14.097s8.809-5.84 14.097-5.84c5.29 0 10.36 2.101 14.099 5.84s5.84 8.809 5.84 14.097v99.689c0 3.326-0.833 6.599-2.421 9.52-1.586 2.921-3.881 5.4-6.67 7.209l-24.045 15.611 22.528 123.732 12.702-25.421c1.656-3.314 4.204-6.101 7.355-8.048s6.785-2.979 10.489-2.976h59.813v-219.315c0-5.287 2.101-10.357 5.84-14.097s8.809-5.84 14.097-5.84c5.29 0 10.36 2.101 14.099 5.84s5.84 8.809 5.84 14.097v299.065c0 5.287-2.101 10.36-5.84 14.099s-8.809 5.84-14.099 5.84zM334.475 370.381c-4.73-1.373-9.628-2.091-14.554-2.132-7.544 0.223-14.963 1.995-21.793 5.204-6.831 3.206-12.932 7.783-17.922 13.446-4.991 5.661-8.766 12.288-11.089 19.468-2.326 7.18-3.153 14.759-2.428 22.272 1.665 26.1 9.989 51.339 24.176 73.309s33.766 39.941 56.87 52.2l-23.028-118.31c-4.335-22.294-0.885-45.401 9.769-65.457z" />
<glyph unicode="&#xe91c;" glyph-name="grocery" horiz-adv-x="892" d="M665.464 605.965c-5.608 6.73-12.63 12.142-20.564 15.855-7.936 3.711-16.592 5.627-25.354 5.618h-322.352l-0.837 6.998c-1.713 14.546-8.704 27.958-19.65 37.693-10.943 9.734-25.078 15.115-39.725 15.122h-4.426c-5.288 0-10.359-2.101-14.098-5.84s-5.84-8.81-5.84-14.098c0-5.288 2.101-10.359 5.84-14.098s8.81-5.84 14.098-5.84h4.426c4.883 0 9.596-1.793 13.247-5.038 3.649-3.245 5.981-7.717 6.551-12.566l27.435-233.271c2.847-24.26 14.503-46.63 32.756-62.864 18.25-16.233 41.828-25.203 66.254-25.2h208.209c5.287 0 10.36 2.101 14.099 5.838 3.74 3.74 5.84 8.812 5.84 14.099s-2.101 10.36-5.84 14.099c-3.74 3.737-8.812 5.838-14.099 5.838h-208.209c-12.341 0.036-24.368 3.885-34.433 11.025s-17.676 17.217-21.791 28.851h237.659c23.373-0.002 46.001 8.209 63.935 23.198s30.031 35.804 34.177 58.806l15.652 86.808c1.562 8.613 1.211 17.465-1.029 25.928s-6.314 16.327-11.932 23.040zM352.185 208.749c22.021 0 39.874 17.853 39.874 39.874 0 22.023-17.853 39.876-39.874 39.876-22.023 0-39.876-17.853-39.876-39.876 0-22.021 17.853-39.874 39.876-39.874zM551.561 208.749c22.021 0 39.874 17.853 39.874 39.874 0 22.023-17.853 39.876-39.874 39.876-22.023 0-39.876-17.853-39.876-39.876 0-22.021 17.853-39.874 39.876-39.874z" />
<glyph unicode="&#xe91d;" glyph-name="gov" horiz-adv-x="892" d="M206.75 208.748h186.904v107.161h104.69v-107.161h186.906v211.537h-478.5v-211.537zM614.25 381.806h28.043v-46.425h-28.043v46.425zM614.25 307.339h28.043v-46.425h-28.043v46.425zM556.298 381.806h28.043v-46.425h-28.043v46.425zM556.298 307.339h28.043v-46.425h-28.043v46.425zM393.654 377.289h104.69v-28.043h-104.69v28.043zM307.66 381.806h28.040v-46.425h-28.040v46.425zM307.66 307.339h28.040v-46.425h-28.040v46.425zM249.708 381.806h28.040v-46.425h-28.040v46.425zM277.749 307.339v-46.425h-28.040v46.425h28.040zM421.697 287.869h48.607v-79.118h-48.607v79.118zM272.14 495.071h347.72v-46.74h-347.72v46.74zM462.518 582.305h-2.498v23.937h64.541v81.010h-92.581v-104.948h-2.498c-39.158 0-72.659-24.624-85.875-59.194h204.786c-13.216 34.57-46.716 59.194-85.875 59.194z" />
<glyph unicode="&#xe91e;" glyph-name="gondola" horiz-adv-x="892" d="M655.221 649.811c4.467 2.089 6.4 7.405 4.309 11.874-2.089 4.469-7.405 6.399-11.874 4.31l-156.995-73.377v-19.719l164.56 76.913zM430.606 590.038c-1.512-0.756-2.469-2.304-2.469-3.996v-124.646c0-2.467 2-4.467 4.467-4.467h35.728c2.467 0 4.467 2 4.467 4.467v142.511c0 3.318-3.493 5.479-6.465 3.996l-35.728-17.865zM410.272 555.042l-173.492-81.087c-4.469-2.089-6.399-7.405-4.31-11.874s7.405-6.4 11.873-4.311l165.929 77.554v19.719zM361.144 488.193h49.128v-26.796c0-12.333 9.996-22.332 22.329-22.332h35.728c12.333 0 22.332 9.998 22.332 22.332v26.796h53.593c36.998 0 66.991-29.993 66.991-66.991v-147.379c0-24.667-19.997-44.661-44.661-44.661h-227.768c-24.665 0-44.661 19.994-44.661 44.661v147.379c0 36.998 29.993 66.991 66.991 66.991zM539.786 322.949c12.331 0 22.329 7.998 22.329 17.865v53.593c0 9.864-9.998 17.863-22.329 17.863h-174.176c-12.333 0-22.329-7.998-22.329-17.863v-53.593c0-9.867 9.996-17.865 22.329-17.865h174.176z" />
<glyph unicode="&#xe91f;" glyph-name="golf" horiz-adv-x="892" d="M446.001 487.855c-13.657 0-26.897-0.797-39.876-1.993v-137.57h-39.874v178.382l137.869 69.663-119.925 86.669c-6.084 3.065-12.848 4.521-19.655 4.229-6.804-0.292-13.42-2.322-19.217-5.896s-10.585-8.574-13.901-14.523c-3.316-5.949-5.055-12.648-5.048-19.458v-177.884c-71.936-23.786-119.626-68.567-119.626-121.181 0-78.257 105.092-139.565 239.252-139.565s239.252 61.308 239.252 139.565c0 78.255-105.092 139.563-239.252 139.563zM505.814 308.416c-7.886 0-15.597 2.34-22.155 6.721-6.556 4.381-11.668 10.608-14.685 17.896-3.017 7.285-3.809 15.303-2.268 23.038 1.538 7.735 5.335 14.841 10.912 20.418s12.68 9.374 20.415 10.912c7.737 1.538 15.755 0.749 23.040-2.268 7.285-3.019 13.513-8.13 17.896-14.688 4.381-6.558 6.721-14.267 6.721-22.152 0-10.577-4.201-20.719-11.68-28.196-7.479-7.479-17.621-11.68-28.196-11.68z" />
<glyph unicode="&#xe920;" glyph-name="gas-station" horiz-adv-x="892" d="M329.295 507.81h79.75c0 10.577-4.201 20.719-11.678 28.196-7.479 7.479-17.621 11.68-28.196 11.68-10.577 0-20.719-4.201-28.196-11.68-7.479-7.477-11.68-17.619-11.68-28.196zM369.172 587.562c9.116-0.091 18.147-1.759 26.696-4.924l48.927 48.927 28.191-28.191-43.723-43.723c12.599-14.338 19.583-32.751 19.659-51.839h79.75v119.626c0 15.863-6.302 31.077-17.518 42.294s-26.43 17.519-42.295 17.519h-199.376c-15.862 0-31.076-6.302-42.295-17.519-11.216-11.217-17.518-26.431-17.518-42.294v-119.626h79.75c0 21.152 8.403 41.436 23.358 56.392 14.958 14.956 35.242 23.358 56.394 23.358zM654.14 641.536l-65.656-65.655v-267.443h-59.813v159.5h-319.002v-259.189h319.002v59.813h99.689v290.811l53.971 53.971-28.191 28.193z" />
<glyph unicode="&#xe921;" glyph-name="fountain" horiz-adv-x="892" d="M625.437 471.926h-167.474v41.867c0 29.734 24.1 53.832 53.832 53.832 29.729 0 53.832-24.097 53.832-53.832v-5.979c0-6.606 5.354-11.965 11.96-11.965 6.611 0 11.963 5.359 11.963 11.965v5.979c0.067 31.191-18.547 59.392-47.26 71.584-28.708 12.192-61.928 6.010-84.327-15.697v63.741c0 16.516 13.389 29.908 29.904 29.908 16.52 0 29.909-13.392 29.909-29.908 0-6.606 5.357-11.964 11.963-11.964s11.96 5.358 11.96 11.964c0.096 22.877-14.334 43.292-35.931 50.835-21.6 7.54-45.606 0.548-59.768-17.418-14.164 17.966-38.17 24.958-59.77 17.418-21.597-7.544-36.027-27.958-35.931-50.835 0-6.606 5.354-11.964 11.96-11.964 6.611 0 11.965 5.358 11.965 11.964 0 16.516 13.386 29.908 29.907 29.908 16.516 0 29.904-13.392 29.904-29.908v-63.741c-22.399 21.707-55.619 27.89-84.327 15.697s-47.327-40.393-47.26-71.584v-5.979c0-6.606 5.357-11.965 11.963-11.965s11.96 5.359 11.96 11.965v5.979c0 29.734 24.102 53.832 53.832 53.832 29.732 0 53.832-24.097 53.832-53.832v-41.867h-167.474c-6.608 0-11.965-5.357-11.965-11.965 0-59.459 48.202-107.664 107.664-107.664h167.479c59.461 0 107.664 48.205 107.664 107.664 0 6.608-5.357 11.965-11.965 11.965zM565.626 256.597h-239.255c-13.212 0-23.923-10.711-23.923-23.923v-11.965c0-6.606 5.357-11.965 11.965-11.965h263.173c6.611 0 11.965 5.359 11.965 11.965v11.965c0 13.212-10.711 23.923-23.925 23.923zM398.147 328.372h95.703v-47.853h-95.703v47.853z" />
<glyph unicode="&#xe922;" glyph-name="ferry" horiz-adv-x="892" d="M446 530.981l-159.502-53.174v49.944c0 15.865 6.302 31.079 17.52 42.295 11.216 11.216 26.43 17.518 42.293 17.518h199.379c15.862 0 31.076-6.302 42.293-17.518 11.219-11.216 17.52-26.43 17.52-42.295v-49.944l-159.502 53.174zM645.376 268.562c0-6.859-13.597-19.937-34.89-19.937-6.082-0.232-12.137 0.902-17.721 3.316-5.587 2.416-10.561 6.051-14.559 10.64 21.231 20.655 38.111 45.35 49.647 72.63s17.494 56.595 17.523 86.215v1.077l-179.439 59.813v-213.753h-39.874v213.731l-179.439-59.813v-1.077c0.048-29.624 6.024-58.94 17.583-86.217 11.556-27.277 28.457-51.963 49.707-72.606-4.012-4.603-9.005-8.247-14.614-10.661-5.608-2.416-11.685-3.541-17.786-3.295-21.712 0-34.89 13.836-34.89 19.937h-39.876c0-32.419 34.254-59.813 74.766-59.813 20.078-0.153 39.539 6.924 54.829 19.937 15.386-12.802 34.761-19.834 54.777-19.887 20.018-0.050 39.426 6.883 54.88 19.609 15.453-12.726 34.861-19.659 54.88-19.609 20.016 0.053 39.391 7.084 54.777 19.887 15.286-13.008 34.739-20.085 54.81-19.937 40.532 0 74.785 27.394 74.785 59.813h-39.876zM525.75 647.378c0 10.576-4.201 20.718-11.678 28.196-7.479 7.478-17.621 11.679-28.196 11.679h-79.752c-10.575 0-20.717-4.201-28.196-11.679-7.477-7.478-11.678-17.62-11.678-28.196v-19.938h159.5v19.938z" />
<glyph unicode="&#xe923;" glyph-name="exercise" horiz-adv-x="892" d="M667.739 545.256l-48.13 48.15 39.876 39.876-28.193 28.192-39.874-39.875-48.13 48.129c-5.555 5.555-12.149 9.962-19.406 12.968-7.259 3.007-15.037 4.554-22.892 4.554-7.857 0-15.635-1.547-22.892-4.554-7.259-3.006-13.853-7.413-19.406-12.968l-56.385-56.384 90.418-90.436-121.622-121.622-90.437 90.418-56.383-56.385c-11.213-11.216-17.512-26.428-17.512-42.288s6.299-31.072 17.512-42.288l48.129-48.15-39.875-39.874 28.192-28.193 39.876 39.876 48.128-48.13c5.555-5.555 12.149-9.962 19.406-12.967 7.259-3.007 15.037-4.555 22.892-4.555 7.857 0 15.635 1.548 22.892 4.555 7.259 3.005 13.853 7.412 19.408 12.967l56.382 56.385-90.416 90.437 121.619 121.619 90.418-90.416 56.382 56.382c11.214 11.216 17.513 26.428 17.513 42.288s-6.28 31.072-17.492 42.288z" />
<glyph unicode="&#xe924;" glyph-name="eats" horiz-adv-x="892" d="M645.355 487.876c-0.892-37.89-10.319-75.092-27.579-108.836-17.26-33.742-41.907-63.158-72.111-86.057v-64.299c0-5.287-2.101-10.357-5.84-14.097s-8.809-5.84-14.097-5.84c-5.287 0-10.36 2.101-14.099 5.84s-5.84 8.809-5.84 14.097v418.692c-0.177 7.491 1.869 14.867 5.883 21.195s9.814 11.323 16.666 14.354c7.874 3.203 16.508 4.043 24.849 2.417 8.343-1.625 16.030-5.645 22.126-11.569 46.243-50.741 71.304-117.259 70.041-185.898zM426.040 687.252c-5.287 0-10.36-2.101-14.099-5.84-3.737-3.739-5.838-8.81-5.838-14.098v-119.625c-0.053-12.329-3.909-24.337-11.049-34.388-7.137-10.049-17.205-17.65-28.828-21.758v175.771c0 5.288-2.101 10.359-5.84 14.098s-8.809 5.84-14.097 5.84c-5.287 0-10.36-2.101-14.099-5.84s-5.84-8.81-5.84-14.098v-175.771c-11.62 4.108-21.691 11.709-28.828 21.758-7.137 10.051-10.996 22.059-11.046 34.388v119.625c0 5.288-2.101 10.359-5.84 14.098s-8.812 5.84-14.099 5.84c-5.287 0-10.357-2.101-14.097-5.84s-5.84-8.81-5.84-14.098v-119.625c0.029-22.973 7.977-45.233 22.504-63.029s34.744-30.041 57.246-34.668v-221.308c0-5.287 2.101-10.357 5.84-14.097s8.812-5.84 14.099-5.84c5.287 0 10.357 2.101 14.097 5.84s5.84 8.809 5.84 14.097v221.308c22.502 4.627 42.719 16.872 57.246 34.668s22.475 40.056 22.504 63.029v119.625c0 5.288-2.101 10.359-5.838 14.098-3.74 3.739-8.812 5.84-14.099 5.84z" />
<glyph unicode="&#xe925;" glyph-name="drive" horiz-adv-x="892" d="M613.257 621.457c-4.936 13.427-13.867 25.020-25.59 33.218s-25.679 12.609-39.984 12.639h-203.364c-14.173 0.011-28.012-4.302-39.668-12.365-11.659-8.062-20.578-19.489-25.569-32.754l-43.045-108.402c-19.406-53.234-29.32-109.46-29.289-166.12v-59.174h59.813v-59.813h79.75v59.813h199.379v-59.813h79.75v59.813h59.813v59.174c0.010 56.964-10.006 113.487-29.588 166.979l-42.407 106.805zM545.69 378.218c0 7.931 3.151 15.537 8.759 21.148 5.608 5.608 13.216 8.759 21.148 8.759s15.537-3.151 21.148-8.759c5.608-5.61 8.759-13.216 8.759-21.148 0-7.934-3.151-15.539-8.759-21.148-5.61-5.608-13.216-8.759-21.148-8.759s-15.539 3.151-21.148 8.759c-5.608 5.608-8.759 13.214-8.759 21.148zM291.903 492.559l43.085 108.381c0.699 1.916 1.967 3.574 3.634 4.747 1.67 1.173 3.658 1.806 5.697 1.814h203.364c2.184-0.054 4.295-0.797 6.032-2.121 1.735-1.325 3.010-3.164 3.639-5.255l42.427-106.747c3.050-8.393 5.682-16.886 8.094-25.44h-323.807c2.431 8.292 4.905 16.528 7.836 24.621zM316.405 348.311c-7.931 0-15.537 3.151-21.145 8.759-5.61 5.608-8.761 13.214-8.761 21.148 0 7.931 3.151 15.537 8.761 21.148 5.608 5.608 13.214 8.759 21.145 8.759 7.934 0 15.539-3.151 21.148-8.759 5.608-5.61 8.759-13.216 8.759-21.148 0-7.934-3.151-15.539-8.759-21.148s-13.214-8.759-21.148-8.759z" />
<glyph unicode="&#xe926;" glyph-name="dollar" horiz-adv-x="892" d="M445.999 686.475c-131.929 0-239.252-107.324-239.252-239.252 12.022-316.969 466.542-316.89 478.505 0 0 131.929-107.324 239.252-239.252 239.252zM465.936 347.534v-19.937c-0.098-26.079-39.776-26.059-39.874 0v19.937h-5.345c-21.272 0-41.13 11.446-51.798 29.887-5.522 9.551-2.251 21.731 7.259 27.234 9.549 5.563 21.75 2.254 27.234-7.257 3.57-6.18 10.187-9.989 17.286-9.989h45.219c19.877-1.297 28.77 30.904 7.099 35.091l-60.631 10.108c-69.821 12.939-54.789 114.7 13.657 114.303v19.937c0.12 26.079 39.776 26.059 39.876 0v-19.937h5.343c21.274 0 41.132-11.465 51.798-29.907 5.524-9.532 2.254-21.712-7.257-27.236-9.57-5.522-21.753-2.251-27.234 7.278-3.57 6.161-10.19 9.97-17.286 9.97h-45.219c-19.879 1.294-28.751-30.904-7.099-35.091l60.631-10.108c69.821-12.939 54.789-114.681-13.659-114.284z" />
<glyph unicode="&#xe927;" glyph-name="dance" horiz-adv-x="892" d="M337.266 609.345c0-2.704-2.172-4.826-4.826-4.826h-7.479v-7.527c0-2.653-2.17-4.826-4.826-4.826-2.701 0-4.823 2.172-4.823 4.826v7.527h-7.527c-2.653 0-4.826 2.122-4.826 4.826 0 2.653 2.172 4.823 4.826 4.823h7.527v7.479c0 2.653 2.122 4.826 4.823 4.826 2.656 0 4.826-2.172 4.826-4.826v-7.479h7.479c2.653 0 4.826-2.17 4.826-4.823zM584.155 344.165c0-9.166-7.429-16.549-16.549-16.549-9.168 0-16.597 7.383-16.597 16.549 0 9.12 7.429 16.551 16.597 16.551 9.12 0 16.549-7.431 16.549-16.551zM567.848 434.346l5.307 5.309c1.883 1.881 4.921 1.881 6.804 0 1.881-1.883 1.881-4.969 0-6.852l-5.309-5.307 5.309-5.259c1.881-1.883 1.881-4.972 0-6.852-0.967-0.916-2.172-1.4-3.426-1.4-1.206 0-2.462 0.483-3.378 1.4l-5.307 5.307-5.309-5.307c-0.964-0.916-2.17-1.4-3.424-1.4-1.208 0-2.462 0.483-3.378 1.4-1.931 1.881-1.931 4.969 0 6.852l5.259 5.259-5.259 5.307c-1.931 1.883-1.931 4.969 0 6.852 1.881 1.881 4.921 1.881 6.802 0l5.309-5.309zM298.954 502.523c-9.118 0-16.549 7.429-16.549 16.549 0 9.118 7.431 16.549 16.549 16.549 9.12 0 16.551-7.431 16.551-16.549 0-9.12-7.431-16.549-16.551-16.549zM374.948 419.723c9.139 0 16.549 7.41 16.549 16.549 0 9.142-7.41 16.551-16.549 16.551s-16.549-7.41-16.549-16.551c0-9.139 7.41-16.549 16.549-16.549zM331.091 359.848c0-2.656-2.122-4.826-4.826-4.826h-7.479v-7.479c0-2.653-2.17-4.826-4.823-4.826s-4.826 2.172-4.826 4.826v7.479h-7.479c-2.701 0-4.823 2.17-4.823 4.826 0 2.701 2.122 4.823 4.823 4.823h7.479v7.527c0 2.653 2.172 4.826 4.826 4.826s4.823-2.172 4.823-4.826v-7.527h7.479c2.704 0 4.826-2.122 4.826-4.823zM470.446 571.971c23.959 9.931 35.328 37.402 25.399 61.359-9.931 23.958-37.402 35.329-61.359 25.399-23.959-9.93-35.328-37.402-25.399-61.358 9.931-23.959 37.402-35.33 61.359-25.399zM506.475 519.408c-4.101-4.823-3.859-11.869 0.531-16.791 33.534-37.345 24.607-112.709 24.22-115.894-3.955-53.942-30.687-130.708-41.977-161.201-3.086-8.348-11.192-13.944-20.119-13.944h-1.543c-6.852 0-13.173 3.184-17.226 8.685-4.101 5.596-5.307 12.592-3.232 19.202 17.032 54.908 19.107 105.281 19.202 123.471-46.8-23.885-72.565-108.996-79.611-135.436-2.46-9.41-11.001-15.922-20.698-15.922-6.369 0-12.353 2.749-16.453 7.575-4.053 4.778-5.79 11.049-4.778 17.176 10.472 63.787 32.955 108.9 49.987 135.484 16.886 26.442 17.755 59.734 2.316 86.947-15.006 26.392-32.907 60.167-38.455 86.992-11.821 57.224 1.304 103.592 10.132 126.172 1.931 4.97 5.694 8.878 10.616 10.953 4.874 2.026 10.228 2.075 15.102 0.048 9.458-3.956 14.185-14.378 11.001-24.221-6.706-20.747-9.891-41.059-9.505-60.264 0.242-14.185 6.127-27.356 16.453-37.199 10.568-9.941 24.318-15.152 38.84-14.621 15.2 0.531 29.385 7.383 38.89 18.865 24.557 29.481 37.584 63.256 43.183 80.77 1.737 5.5 5.79 9.939 11.049 12.255s11.29 2.22 16.501-0.241c8.395-3.908 12.979-13.076 11.097-22.195-9.022-44.534-44.92-92.203-65.522-116.667zM573.396 563.99c0 2.653 2.125 4.823 4.826 4.823h7.479v7.479c0 2.701 2.17 4.826 4.823 4.826 2.656 0 4.826-2.125 4.826-4.826v-7.479h7.479c2.701 0 4.826-2.17 4.826-4.823 0-2.656-2.125-4.826-4.826-4.826h-7.479v-7.479c0-2.701-2.17-4.826-4.826-4.826-2.653 0-4.823 2.125-4.823 4.826v7.479h-7.479c-2.701 0-4.826 2.17-4.826 4.826zM608.185 496.25c1.881-1.881 1.881-4.969 0-6.852-0.916-0.916-2.172-1.397-3.426-1.397-1.206 0-2.46 0.481-3.378 1.397l-5.307 5.309-5.307-5.309c-0.916-0.916-2.172-1.397-3.426-1.397-1.206 0-2.462 0.481-3.378 1.397-1.881 1.883-1.881 4.972 0 6.852l5.309 5.259-5.309 5.309c-1.881 1.881-1.881 4.969 0 6.85 1.883 1.883 4.921 1.883 6.804 0l5.307-5.307 5.307 5.307c1.883 1.883 4.921 1.883 6.804 0 1.881-1.881 1.881-4.969 0-6.85l-5.307-5.309 5.307-5.259z" />
<glyph unicode="&#xe928;" glyph-name="coffee" horiz-adv-x="892" d="M466.438 627.439v39.875c0 5.288 2.101 10.359 5.838 14.098 3.74 3.739 8.812 5.84 14.099 5.84s10.36-2.101 14.099-5.84c3.737-3.739 5.838-8.81 5.838-14.098v-39.875c0-5.288-2.101-10.359-5.838-14.098-3.74-3.739-8.812-5.839-14.099-5.839s-10.36 2.1-14.099 5.839c-3.737 3.739-5.838 8.81-5.838 14.098zM406.625 607.502c5.287 0 10.357 2.1 14.097 5.839s5.84 8.81 5.84 14.098v39.875c0 5.288-2.101 10.359-5.84 14.098s-8.809 5.84-14.097 5.84c-5.287 0-10.36-2.101-14.099-5.84s-5.84-8.81-5.84-14.098v-39.875c0-5.288 2.101-10.359 5.84-14.098s8.812-5.839 14.099-5.839zM326.872 607.502c5.287 0 10.36 2.1 14.099 5.839s5.84 8.81 5.84 14.098v39.875c0 5.288-2.101 10.359-5.84 14.098s-8.812 5.84-14.099 5.84c-5.287 0-10.357-2.101-14.097-5.84s-5.84-8.81-5.84-14.098v-39.875c0-5.288 2.101-10.359 5.84-14.098s8.809-5.839 14.097-5.839zM685.253 425.211c-0.656-20.681-9.355-40.29-24.251-54.655-14.896-14.362-34.809-22.344-55.499-22.246h-49.346c-12.697-18.609-29.787-33.804-49.755-44.235-19.968-10.434-42.199-15.783-64.727-15.578h-71.118c-22.908-0.227-45.511 5.287-65.739 16.042-20.226 10.754-37.438 26.406-50.059 45.527-28.232 45.039-96.918 210.162 11.802 217.559h279.129c9.508-0.258 18.827-2.708 27.234-7.156 8.407-4.45 15.673-10.781 21.234-18.497 5.56-7.718 9.264-16.614 10.824-25.997s0.933-18.999-1.833-28.1c49.267 0 82.104-24.026 82.104-62.665zM645.377 425.211c1.756 18.482-24.921 24.404-49.006 22.789-4.457-20.49-10.824-40.515-19.021-59.813h28.153c10.12-0.103 19.896 3.68 27.315 10.568 7.417 6.886 11.912 16.355 12.558 26.457zM585.564 248.623h-358.879c-5.287 0-10.357-2.101-14.097-5.84s-5.84-8.812-5.84-14.099c0-5.287 2.101-10.357 5.84-14.097s8.809-5.84 14.097-5.84h358.879c5.287 0 10.36 2.101 14.099 5.84s5.84 8.809 5.84 14.097c0 5.287-2.101 10.36-5.84 14.099s-8.812 5.84-14.099 5.84z" />
<glyph unicode="&#xe929;" glyph-name="cocktail" horiz-adv-x="892" d="M575.586 687.253c-42.527 0-79.035-24.404-97.196-59.813h-271.652v-29.907c0-29.985 12.661-58.756 34.751-79.013l144.688-138.826v-111.133h-79.75v-59.813h219.313v59.813h-79.75v111.152l97.077 93.151c10.288-3.192 21.193-4.905 32.538-4.905 60.572 0 109.657 49.085 109.657 109.657s-49.107 109.637-109.676 109.637zM282.042 562.483c-1.754 1.596-3.369 3.33-4.845 5.144h277.712c-1.615-1.993-3.409-3.907-5.364-5.682l-133.462-128.041-134.041 128.579z" />
<glyph unicode="&#xe92a;" glyph-name="charge" horiz-adv-x="892" d="M645.376 647.377v-39.875h-39.874v39.875h-39.876v-79.751c0-10.575 4.201-20.719 11.68-28.196 7.477-7.479 17.619-11.68 28.196-11.68v-199.376c0-5.287-2.101-10.36-5.84-14.099-3.74-3.737-8.812-5.838-14.099-5.838h-59.813v159.5h-59.813v39.876h59.813v119.626c0 15.863-6.302 31.077-17.518 42.294s-26.43 17.519-42.295 17.519h-199.376c-15.862 0-31.076-6.302-42.295-17.519-11.216-11.217-17.518-26.431-17.518-42.294v-119.626h59.813v-39.876h-59.813v-259.189h319.002v59.813h59.813c15.865 0 31.079 6.302 42.295 17.518 11.216 11.219 17.518 26.433 17.518 42.295v199.376c10.577 0 20.719 4.201 28.196 11.68 7.479 7.477 11.68 17.621 11.68 28.196v79.751h-39.876zM421.517 459.443l-35.17-70.438-35.67 17.803 30.526 61.129h-42.568c-5.027-0.002-9.984 1.175-14.475 3.433s-8.388 5.539-11.384 9.577c-2.995 4.036-5.003 8.721-5.862 13.673s-0.545 10.037 0.916 14.848l44.321 82.961 35.091-18.922-35.45-65.694h42.367c5.661 0.019 11.226-1.467 16.121-4.307 4.897-2.84 8.948-6.931 11.743-11.855 2.792-4.924 4.223-10.501 4.149-16.161s-1.656-11.197-4.577-16.047h-0.079z" />
<glyph unicode="&#xe92b;" glyph-name="casino" horiz-adv-x="892" d="M446 687.253c-47.319 0-93.576-14.032-132.921-40.321s-70.010-63.655-88.119-107.374c-18.109-43.716-22.846-91.823-13.615-138.233s32.018-89.040 65.477-122.502c33.462-33.459 76.092-56.246 122.502-65.479 46.41-9.23 94.517-4.493 138.233 13.616 43.719 18.109 81.085 48.774 107.374 88.119s40.321 85.602 40.321 132.921c-0.069 63.433-25.296 124.249-70.151 169.101-44.853 44.854-105.668 70.083-169.101 70.151zM645.376 448.001c-0.024-12.716-1.266-25.401-3.708-37.881l-38.52 11.563c3.139 17.406 3.139 35.23 0 52.636l38.52 11.563c2.443-12.479 3.684-25.165 3.708-37.881zM630.224 524.083l-38.479-11.544c-16.123 36.161-45.046 65.084-81.207 81.207l11.544 38.479c48.918-20.347 87.796-59.225 108.142-108.142zM446 328.375c-23.66 0-46.788 7.015-66.46 20.159-19.674 13.147-35.007 31.828-44.061 53.688-9.053 21.858-11.422 45.91-6.807 69.115 4.615 23.207 16.008 44.522 32.739 61.251 16.729 16.731 38.044 28.124 61.251 32.739 23.205 4.618 47.257 2.247 69.115-6.807 21.86-9.053 40.541-24.387 53.688-44.058 13.145-19.674 20.159-42.802 20.159-66.462-0.031-31.718-12.644-62.127-35.072-84.554s-52.836-35.041-84.554-35.072zM483.881 643.67l-11.563-38.52c-17.406 3.138-35.23 3.138-52.636 0l-11.563 38.52c25.011 4.943 50.75 4.943 75.762 0zM369.918 632.225l11.544-38.479c-36.161-16.123-65.084-45.046-81.207-81.207l-38.479 11.544c20.346 48.918 59.225 87.795 108.142 108.142zM246.624 448.001c0.024 12.716 1.266 25.401 3.708 37.881l38.52-11.563c-3.137-17.406-3.137-35.23 0-52.636l-38.52-11.563c-2.443 12.479-3.684 25.165-3.708 37.881zM261.776 371.919l38.479 11.544c16.123-36.161 45.046-65.084 81.207-81.207l-11.544-38.479c-48.918 20.346-87.796 59.225-108.142 108.142zM408.119 252.293l11.563 38.52c17.406-3.137 35.23-3.137 52.636 0l11.563-38.52c-25.011-4.943-50.75-4.943-75.762 0zM522.082 263.758l-11.544 38.46c36.161 16.123 65.084 45.044 81.207 81.205l38.479-11.544c-20.351-48.901-59.229-87.758-108.142-108.082v-0.038zM446 527.751l59.813-79.75-59.813-79.75-59.813 79.75 59.813 79.75z" />
<glyph unicode="&#xe92c;" glyph-name="car-rental" horiz-adv-x="892" d="M685.231 326.799c0.012 29.713-5.094 59.205-15.094 87.186l-17.006 47.611c-6.941 19.348-19.683 36.082-36.484 47.92-16.803 11.841-36.85 18.207-57.404 18.233h-86.968c-20.554-0.026-40.599-6.393-57.401-18.233-16.803-11.838-29.543-28.572-36.484-47.92l-17.008-47.611c-17.085-50.183-30.864-125.488 24.784-155.394v-9.967c0-10.577 4.201-20.719 11.678-28.196 7.479-7.479 17.621-11.68 28.196-11.68 10.577 0 20.719 4.201 28.198 11.68 7.477 7.477 11.678 17.619 11.678 28.196h99.689c0-10.577 4.201-20.719 11.678-28.196 7.479-7.479 17.621-11.68 28.196-11.68 10.577 0 20.719 4.201 28.198 11.68 7.477 7.477 11.678 17.619 11.678 28.196v9.967c12.104 6.807 22.176 16.712 29.184 28.698 7.008 11.989 10.697 25.624 10.692 39.51zM472.275 487.876h86.968c12.333-0.017 24.361-3.838 34.44-10.941 10.080-7.106 17.724-17.147 21.884-28.756l14.314-40.056h-228.247l14.317 40.056c4.161 11.609 11.802 21.65 21.884 28.756 10.080 7.103 22.107 10.924 34.438 10.941zM607.055 288.497h-182.59c-43.305 1.017-41.491 48.47-34.314 79.752h35.888v-19.939c0-5.287 2.101-10.357 5.84-14.097s8.812-5.84 14.099-5.84c5.287 0 10.36 2.101 14.097 5.84 3.74 3.74 5.84 8.809 5.84 14.097v19.939h99.689v-19.939c0-5.287 2.101-10.357 5.84-14.097 3.737-3.74 8.809-5.84 14.097-5.84s10.36 2.101 14.099 5.84c3.737 3.74 5.838 8.809 5.838 14.097v19.939h35.888c7.178-31.282 8.972-78.755-34.311-79.752zM286.476 507.813v19.937h-35.888c-7.137-31.282-8.931-78.752 34.352-79.75h21.473c5.29 0 10.36-2.101 14.099-5.84s5.84-8.809 5.84-14.097v-19.939c0-10.575-4.201-20.717-11.68-28.196-7.477-7.477-17.621-11.678-28.196-11.678s-20.717 4.201-28.196 11.678c-7.479 7.479-11.68 17.621-11.68 28.196v9.97c-55.665 30.026-41.868 105.171-24.782 155.394l17.007 47.611c6.942 19.347 19.682 36.081 36.485 47.92s36.847 18.206 57.401 18.234h86.968c20.554-0.027 40.599-6.395 57.401-18.234s29.543-28.573 36.486-47.92l9.589-26.837c1.778-4.981 1.503-10.463-0.763-15.243-2.266-4.778-6.338-8.46-11.319-10.238-2.467-0.878-5.082-1.263-7.697-1.134-2.615 0.132-5.18 0.778-7.546 1.9-4.778 2.266-8.46 6.335-10.238 11.317l-9.589 26.818c-4.163 11.608-11.805 21.65-21.884 28.755s-22.107 10.925-34.44 10.94h-86.968c-12.331-0.015-24.358-3.836-34.44-10.94-10.080-7.105-17.721-17.146-21.884-28.755l-14.314-40.056h104.154c5.29 0 10.36-2.101 14.099-5.84s5.84-8.809 5.84-14.097c0-5.287-2.101-10.36-5.84-14.099s-8.809-5.84-14.099-5.84h-39.874v-19.937c0-5.287-2.101-10.36-5.84-14.099-3.74-3.737-8.809-5.838-14.099-5.838-5.287 0-10.357 2.101-14.097 5.838-3.74 3.74-5.84 8.812-5.84 14.099z" />
<glyph unicode="&#xe92d;" glyph-name="camp" horiz-adv-x="892" d="M507.14 307.77l176.188-60.77-12.999-37.704-224.318 77.379-224.34-77.379-12.999 37.704 176.189 60.77-176.189 60.77 12.999 37.701 224.318-77.379 224.321 77.379 12.999-37.701-176.169-60.77zM306.427 507.266c0 40.135 23.267 71.178 46.415 95.062 0 0 15.413-53.571 29.507-53.571 39.955 0 21.293 89.041 63.641 137.948 44.082-44.082 139.565-98.632 139.565-179.439 0-77.080-62.486-139.563-139.565-139.563s-139.563 62.483-139.563 139.563zM417.78 419.261c15.571-15.573 40.831-15.573 56.404 0 15.571 15.571 15.571 40.831 0 56.404l-28.213 28.21-28.213-28.21c-15.571-15.573-15.571-40.833 0-56.404h0.022z" />
<glyph unicode="&#xe92e;" glyph-name="cam" horiz-adv-x="892" d="M560.063 627.439l-28.172 36.526c-5.61 7.221-12.793 13.071-21.002 17.105-8.206 4.035-17.224 6.149-26.37 6.182h-77.039c-9.144-0.033-18.164-2.147-26.37-6.182s-15.389-9.884-21.002-17.105l-28.172-36.526h228.127zM446 328.374c44.046 0 79.752 35.706 79.752 79.752 0 44.044-35.706 79.75-79.752 79.75-44.044 0-79.75-35.706-79.75-79.75 0-44.046 35.706-79.752 79.75-79.752zM585.563 587.563h-279.126c-26.43-0.031-51.767-10.544-70.456-29.232-18.688-18.69-29.201-44.027-29.233-70.457v-179.439c0.032-26.428 10.545-51.767 29.233-70.455s44.026-29.201 70.456-29.232h279.126c26.43 0.031 51.767 10.544 70.457 29.232 18.688 18.688 29.201 44.027 29.232 70.455v179.439c-0.031 26.43-10.544 51.767-29.232 70.457-18.69 18.688-44.027 29.201-70.457 29.232zM446 288.498c-23.66 0-46.788 7.015-66.462 20.162-19.671 13.145-35.005 31.828-44.058 53.686s-11.424 45.91-6.807 69.118c4.615 23.205 16.008 44.52 32.739 61.249 16.729 16.731 38.044 28.124 61.249 32.739 23.207 4.618 47.26 2.247 69.118-6.807s40.541-24.387 53.686-44.058c13.147-19.674 20.162-42.802 20.162-66.462-0.031-31.718-12.644-62.127-35.072-84.554s-52.836-35.041-84.554-35.072z" />
<glyph unicode="&#xe92f;" glyph-name="bus" horiz-adv-x="892" d="M645.376 488.342v115.059c0.041 11.729-3.385 23.207-9.843 32.996-6.46 9.789-15.666 17.454-26.464 22.032-73.23 37.882-253.107 37.742-326.139 0-10.8-4.576-20.006-12.24-26.466-22.030s-9.884-21.27-9.84-32.999v-115.059h-39.876v-59.813c0-10.577 4.201-20.719 11.679-28.198 7.478-7.477 17.62-11.678 28.197-11.678v-139.563h39.874v-39.876h99.689v39.876h119.626v-39.876h99.689v39.876h39.874v139.563c10.577 0 20.719 4.201 28.196 11.678 7.479 7.479 11.68 17.621 11.68 28.198v59.813h-39.876zM286.498 428.529v119.626h319.005v-119.626h-319.005zM298.46 621.684c46.951 18.449 97.11 27.342 147.54 26.158 50.43 1.188 100.586-7.699 147.54-26.138 3.574-1.532 6.618-4.087 8.747-7.344 2.127-3.256 3.247-7.069 3.216-10.96v-15.372h-99.689v19.938h-119.626v-19.938h-99.689v15.372c-0.029 3.888 1.091 7.697 3.218 10.95 2.129 3.253 5.17 5.804 8.745 7.333zM286.498 288.963v99.689h39.876v-19.937c0-5.29 2.101-10.36 5.84-14.099s8.809-5.84 14.097-5.84c5.287 0 10.36 2.101 14.099 5.84s5.84 8.809 5.84 14.099v19.937h159.5v-19.937c0-5.29 2.101-10.36 5.84-14.099s8.812-5.84 14.099-5.84c5.287 0 10.357 2.101 14.097 5.84s5.84 8.809 5.84 14.099v19.937h39.876v-99.689h-319.005z" />
<glyph unicode="&#xe930;" glyph-name="burgers" horiz-adv-x="892" d="M685.239 368.508v-19.939h-319.002v19.939c0 21.15 8.4 41.436 23.358 56.392 14.956 14.956 35.239 23.358 56.392 23.358h159.502c21.15 0 41.436-8.403 56.392-23.358s23.358-35.242 23.358-56.392zM545.676 268.819l-59.813 39.876h-119.626v-19.939c0-21.15 8.4-41.436 23.358-56.392 14.956-14.956 35.239-23.358 56.392-23.358h159.502c21.15 0 41.436 8.403 56.392 23.358s23.358 35.242 23.358 56.392v19.939h-79.75l-59.813-39.876zM326.361 368.508v-79.752c0.005-29.586 11.030-58.11 30.923-80.008h-108.262l-41.112 327.855c-1.707 8.481-1.508 17.238 0.581 25.633s6.018 16.221 11.501 22.916c5.584 6.981 12.668 12.616 20.727 16.485 8.060 3.869 16.886 5.874 25.827 5.865h131.589l10.269 79.751h137.271v-39.616h-102.022l-5.185-40.135h47.393c8.96 0 17.805-2.014 25.882-5.892 8.080-3.878 15.183-9.522 20.786-16.513 5.606-6.991 9.565-15.154 11.592-23.882s2.067-17.8 0.117-26.545l-5.862-46.535h-92.392c-31.727 0-62.155-12.604-84.588-35.039-22.435-22.435-35.039-52.863-35.039-84.588zM433.287 567.626l-5.084-39.618h75.065l1.694 13.479c0.89 3.177 1.029 6.52 0.404 9.761-0.622 3.242-1.988 6.295-3.993 8.919-1.857 2.33-4.216 4.213-6.902 5.503-2.687 1.292-5.63 1.959-8.608 1.955h-52.576zM387.968 528.008l5.103 39.618h-126.524c-2.986 0-5.933-0.668-8.625-1.957s-5.060-3.168-6.929-5.493c-1.871-2.328-3.194-5.046-3.873-7.95-0.679-2.907-0.696-5.931-0.053-8.845l1.995-15.372h138.905z" />
<glyph unicode="&#xe931;" glyph-name="brunch" horiz-adv-x="892" d="M470.797 387.387l-213.971 97.436c-6.886 3.519-12.958 8.443-17.822 14.453-4.866 6.010-8.419 12.975-10.429 20.439-2.010 7.467-2.433 15.274-1.242 22.913s3.972 14.946 8.159 21.447c24.82 37.481 56.925 69.587 94.404 94.405 6.532 4.208 13.874 6.994 21.554 8.177 7.678 1.183 15.52 0.735 23.014-1.313 7.496-2.048 14.475-5.651 20.485-10.575s10.917-11.058 14.401-18.001l96.438-214.37-34.991-35.012zM544.984 672.536c-6.62 5.699-14.389 9.909-22.779 12.345-8.388 2.435-17.205 3.039-25.849 1.771-18.262-2.672-41.869-6.918-64.737-12.561 5.266-5.904 9.769-12.449 13.398-19.479l98.651-214.449c2.773 1.077 21.932 7.836 21.932 7.836v179.439c0.002 8.556-1.84 17.011-5.395 24.794-3.558 7.782-8.749 14.707-15.221 20.304zM652.827 611.786c-15.054 8.534-30.916 15.559-47.35 20.975v-144.788c6.101 1.256 21.054 3.369 21.054 3.369 13.874 1.373 26.942 7.173 37.268 16.544s17.363 21.815 20.071 35.493c2.854 13.223 1.376 27.014-4.216 39.333-5.589 12.319-14.996 22.514-26.827 29.074zM266.535 328.373h179.439c0 0 6.759 19.159 7.836 21.93l-214.411 98.672c-7.024 3.629-13.568 8.123-19.478 13.379-5.643-22.849-9.969-46.456-12.561-64.718-1.27-8.644-0.666-17.461 1.769-25.851 2.436-8.388 6.646-16.157 12.348-22.777 5.591-6.472 12.508-11.664 20.281-15.224 7.776-3.56 16.226-5.407 24.777-5.412zM350.592 210.101c13.678 2.708 26.124 9.747 35.493 20.073 9.372 10.326 15.171 23.392 16.544 37.268 0 0 2.153 14.972 3.469 21.054h-144.846c5.414-16.437 12.439-32.297 20.973-47.353 6.565-11.826 16.757-21.229 29.076-26.815s26.11-7.063 39.331-4.206l-0.041-0.022z" />
<glyph unicode="&#xe932;" glyph-name="bowling" horiz-adv-x="892" d="M255.524 571.114c-4.548 11.687-7.539 23.92-8.893 36.388 0 21.15 8.403 41.435 23.358 56.392s35.242 23.358 56.392 23.358c21.152 0 41.436-8.402 56.394-23.358 14.956-14.956 23.358-35.241 23.358-56.392-1.357-12.467-4.345-24.7-8.893-36.388-5.072-14.063-8.771-28.586-11.046-43.364h-119.626c-2.273 14.779-5.972 29.301-11.044 43.364zM396.384 487.876h-140.003c-4.326-9.97-9.57-20.179-15.013-30.646-20.329-32.902-32.218-70.316-34.612-108.92-0.376-32.297 6.334-64.282 19.658-93.706 6.441-13.721 16.659-25.32 29.457-33.44 12.795-8.123 27.641-12.429 42.797-12.417h55.428c15.157-0.012 30.002 4.295 42.797 12.417 12.798 8.12 23.014 19.719 29.457 33.44 13.324 29.423 20.035 61.409 19.657 93.706-2.393 38.603-14.281 76.018-34.61 108.92-5.443 10.467-10.687 20.676-15.013 30.646zM685.26 368.25c-0.019-27.091-6.936-53.729-20.092-77.41-13.159-23.679-32.127-43.62-55.119-57.945-22.995-14.326-49.252-22.564-76.31-23.937-27.055-1.376-54.014 4.158-78.341 16.078 2.634 4.118 5.010 8.393 7.118 12.8 15.783 34.67 23.76 72.383 23.368 110.475-2.23 45.027-15.671 88.787-39.099 127.304-4.165 7.974-8.113 15.85-11.664 23.545 23.885 16.654 51.879 26.437 80.937 28.282 29.060 1.845 58.067-4.321 83.865-17.822 25.796-13.501 47.396-33.821 62.442-58.748s22.966-53.504 22.894-82.621zM565.634 388.187c0 3.943-1.168 7.797-3.359 11.077-2.192 3.278-5.304 5.833-8.948 7.343s-7.651 1.904-11.52 1.134c-3.866-0.768-7.419-2.668-10.207-5.455-2.79-2.79-4.689-6.343-5.457-10.209-0.77-3.869-0.376-7.876 1.134-11.52s4.065-6.756 7.343-8.948c3.28-2.192 7.135-3.359 11.077-3.359 5.287 0 10.36 2.101 14.099 5.838 3.737 3.74 5.838 8.812 5.838 14.099zM605.51 448c0 3.943-1.17 7.797-3.359 11.077-2.192 3.278-5.304 5.833-8.948 7.343s-7.651 1.904-11.52 1.134c-3.869-0.768-7.419-2.668-10.209-5.455-2.787-2.79-4.687-6.343-5.455-10.209-0.77-3.869-0.376-7.876 1.134-11.52 1.507-3.644 4.065-6.756 7.343-8.948s7.135-3.359 11.077-3.359c5.287 0 10.36 2.101 14.097 5.838 3.74 3.74 5.84 8.812 5.84 14.099zM645.386 388.187c0 3.943-1.17 7.797-3.361 11.077-2.189 3.278-5.304 5.833-8.948 7.343-3.641 1.51-7.651 1.904-11.518 1.134-3.869-0.768-7.422-2.668-10.209-5.455-2.79-2.79-4.687-6.343-5.457-10.209-0.768-3.869-0.373-7.876 1.134-11.52 1.51-3.644 4.065-6.756 7.345-8.948 3.278-2.192 7.132-3.359 11.075-3.359 5.29 0 10.36 2.101 14.099 5.838 3.74 3.74 5.84 8.812 5.84 14.099z" />
<glyph unicode="&#xe933;" glyph-name="book" horiz-adv-x="892" d="M605.501 333.661v294.142c0 18.941-8.673 36.347-23.806 47.751-15.114 11.404-34.194 14.993-52.437 9.75l-59.813-17.086c-8.893-2.532-16.848-7.058-23.447-12.979-6.599 5.921-14.554 10.447-23.447 12.979l-59.813 17.086c-18.262 5.244-37.343 1.655-52.437-9.75-15.133-11.404-23.806-28.81-23.806-47.751v-294.142l159.502-45.578 159.502 45.578zM465.936 610.716c0 8.852 5.943 16.729 14.475 19.162l59.813 17.086c1.835 0.518 3.689 0.778 5.524 0.778 4.266 0 8.434-1.376 11.941-4.027 5.046-3.808 7.936-9.61 7.936-15.911v-264.075l-99.689-28.49v275.478zM426.062 335.257l-99.689 28.49v264.056c0 6.3 2.89 12.102 7.936 15.911 5.024 3.788 11.403 4.984 17.465 3.25l59.813-17.086c8.513-2.433 14.453-10.309 14.453-19.162v-275.458h0.022zM685.251 627.822v-351.122l-239.252-68.366-239.252 68.366v331.185c0 18.942 8.673 36.347 23.806 47.751 4.964 3.748 10.427 6.3 16.071 8.334v-357.203l199.376-56.964 199.376 56.964v377.141c5.644-2.034 11.125-4.586 16.071-8.334 15.133-11.404 23.806-28.81 23.806-47.752z" />
<glyph unicode="&#xe934;" glyph-name="bike" horiz-adv-x="892" d="M406.124 318.405c0-19.717-5.845-38.991-16.8-55.385-10.953-16.394-26.524-29.17-44.738-36.716-18.217-7.546-38.261-9.52-57.598-5.673-19.339 3.847-37.101 13.341-51.042 27.282s-23.436 31.706-27.283 51.042c-3.846 19.339-1.872 39.383 5.673 57.598 7.545 18.217 20.323 33.785 36.716 44.74 16.394 10.953 35.668 16.8 55.385 16.8 26.428-0.033 51.767-10.546 70.455-29.234s29.201-44.025 29.232-70.455zM585.563 418.095c-19.717 0-38.989-5.847-55.382-16.8-16.394-10.955-29.172-26.524-36.718-44.74-7.544-18.214-9.517-38.259-5.673-57.598 3.847-19.336 13.341-37.101 27.284-51.042 13.941-13.941 31.703-23.435 51.042-27.282 19.336-3.847 39.381-1.873 57.598 5.673 18.214 7.546 33.785 20.322 44.738 36.716s16.8 35.668 16.8 55.385c-0.031 26.43-10.544 51.767-29.232 70.455-18.69 18.688-44.027 29.201-70.457 29.234zM458.98 413.288c2.182-1.871 3.933-4.192 5.134-6.804s1.823-5.453 1.823-8.328v-79.75c0-5.287-2.101-10.36-5.838-14.099-3.74-3.737-8.812-5.838-14.099-5.838s-10.36 2.101-14.099 5.838c-3.737 3.74-5.838 8.812-5.838 14.099v70.599l-38.639 33.196c-10.635 9.247-17.65 21.961-19.798 35.888-0.459-0.12-0.897-0.12-1.376-0.12-15.865 0-31.079 6.302-42.295 17.52-11.216 11.216-17.518 26.43-17.518 42.293 0 56.026 70.199 79.752 98.153 79.752 26.198-0.287 51.683-8.565 73.051-23.727 0.878-0.639 82.143-81.745 82.143-81.745 1.904-1.837 3.424-4.039 4.469-6.472 1.046-2.431 1.596-5.048 1.617-7.694 0.024-2.649-0.481-5.273-1.483-7.723s-2.483-4.677-4.354-6.548c-1.873-1.873-4.098-3.354-6.548-4.357-2.452-1.002-5.077-1.505-7.723-1.483-2.649 0.024-5.264 0.574-7.697 1.617-2.433 1.046-4.632 2.565-6.472 4.469l-66.333 66.273c0 0-49.525-45.458-52.894-48.647-1.952-1.916-3.484-4.216-4.498-6.756-1.014-2.538-1.488-5.261-1.392-7.993s0.758-5.414 1.948-7.876c1.189-2.462 2.878-4.651 4.96-6.424l45.597-39.158zM585.563 627.44c0-9.858-2.921-19.495-8.4-27.692-5.476-8.198-13.262-14.586-22.368-18.359-9.108-3.773-19.131-4.759-28.799-2.835-9.671 1.921-18.552 6.67-25.521 13.64-6.972 6.972-11.719 15.853-13.642 25.522s-0.935 19.691 2.838 28.799c3.771 9.108 10.161 16.893 18.358 22.369s17.834 8.4 27.691 8.4c13.219 0 25.897-5.251 35.244-14.599s14.599-22.026 14.599-35.245z" />
<glyph unicode="&#xe935;" glyph-name="beer" horiz-adv-x="892" d="M605.502 508.103h-19.939v69.783c0 7.931-3.151 15.537-8.759 21.145-5.608 5.61-13.214 8.761-21.148 8.761h-24.124c-4.23 13.562-13.508 24.982-25.918 31.9-10.864 6.066-23.291 8.752-35.689 7.716-5.433-0.608-10.931 0.198-15.961 2.339s-9.422 5.545-12.75 9.883c-7.285 9.48-16.879 16.936-27.863 21.654-10.986 4.719-22.997 6.543-34.89 5.299-11.891-1.244-23.265-5.514-33.036-12.404s-17.614-16.168-22.779-26.951c-13.334 1.51-26.782-1.575-38.122-8.746s-19.891-17.998-24.243-30.69h-23.626c-7.931 0-15.539-3.151-21.148-8.761-5.608-5.608-8.759-13.214-8.759-21.145v-259.192c0.031-29.072 11.594-56.947 32.153-77.503 20.557-20.559 48.432-32.122 77.503-32.153h159.502c23.849 0.038 47.035 7.843 66.053 22.231s32.835 34.582 39.357 57.519h24.186c21.15 0 41.436 8.403 56.392 23.358 14.956 14.958 23.358 35.242 23.358 56.394v59.813c0 21.15-8.403 41.436-23.358 56.392s-35.242 23.358-56.392 23.358zM525.75 318.694c0-13.219-5.252-25.897-14.599-35.244s-22.026-14.599-35.244-14.599h-159.502c-13.219 0-25.897 5.252-35.244 14.599s-14.599 22.026-14.599 35.244v229.285h9.97c7.931 0 15.537-3.151 21.148-8.761 5.608-5.608 8.759-13.214 8.759-21.145v-89.72c0-10.577 4.201-20.719 11.678-28.198 7.479-7.477 17.621-11.678 28.196-11.678 10.577 0 20.719 4.201 28.196 11.678 7.479 7.479 11.68 17.621 11.68 28.198v89.72c0 7.931 3.151 15.537 8.759 21.145 5.608 5.61 13.216 8.761 21.148 8.761h109.657v-229.285zM625.439 368.54c0-5.29-2.101-10.36-5.84-14.099s-8.809-5.84-14.097-5.84h-19.939v99.689h19.939c5.287 0 10.357-2.101 14.097-5.84s5.84-8.809 5.84-14.097v-59.813z" />
<glyph unicode="&#xe936;" glyph-name="art" horiz-adv-x="892" d="M604.976 352.297l1.995-1.993c4.527-4.565 10.132-7.912 16.3-9.728 6.166-1.816 12.69-2.043 18.968-0.66 6.177 1.297 11.929 4.125 16.726 8.225s8.486 9.34 10.728 15.24c11.008 28.904 16.272 59.679 15.492 90.598-2.242 60.729-27.222 118.401-69.984 161.58-42.764 43.18-100.189 68.718-160.895 71.551-32.098 1.116-64.096-4.243-94.079-15.757-29.985-11.514-57.344-28.948-80.449-51.262-23.102-22.315-41.474-49.052-54.023-78.618s-19.015-61.356-19.015-93.476c0.074-63.431 25.305-124.244 70.157-169.096s105.663-70.082 169.094-70.156c6.74 0 13.36 0.438 19.939 0.998 4.991 0.419 9.642 2.704 13.027 6.4 3.383 3.694 5.252 8.527 5.235 13.537l-0.639 71.536c-0.16 14.135 3.895 28 11.649 39.821s18.855 21.061 31.888 26.543c13.032 5.484 27.399 6.957 41.273 4.235 13.872-2.723 26.619-9.517 36.61-19.518zM546.321 526.752c5.716 1.517 11.754 1.304 17.351-0.61 5.596-1.916 10.498-5.445 14.087-10.147 3.591-4.701 5.706-10.36 6.079-16.264 0.373-5.902-1.012-11.783-3.981-16.898s-7.388-9.235-12.7-11.841c-5.309-2.603-11.274-3.574-17.135-2.79s-11.36 3.29-15.798 7.199c-4.441 3.909-7.618 9.049-9.137 14.764-1.010 3.797-1.261 7.754-0.739 11.647 0.522 3.895 1.804 7.647 3.775 11.044 1.974 3.397 4.596 6.374 7.716 8.757 3.122 2.385 6.685 4.129 10.482 5.139zM362.295 349.306c-5.716-1.517-11.754-1.304-17.351 0.61s-10.498 5.445-14.090 10.147c-3.589 4.699-5.704 10.36-6.077 16.262s1.012 11.783 3.981 16.898c2.969 5.115 7.388 9.238 12.7 11.841 5.309 2.603 11.274 3.574 17.135 2.79s11.36-3.29 15.798-7.199c4.438-3.909 7.618-9.046 9.137-14.762 1.010-3.797 1.261-7.757 0.739-11.649s-1.806-7.647-3.778-11.044c-1.971-3.397-4.594-6.374-7.716-8.757s-6.682-4.129-10.479-5.137zM362.295 468.932c-5.716-1.517-11.754-1.304-17.351 0.61s-10.498 5.445-14.090 10.147c-3.589 4.699-5.704 10.36-6.077 16.262s1.012 11.783 3.981 16.898c2.969 5.115 7.388 9.238 12.7 11.841 5.309 2.603 11.274 3.574 17.135 2.79s11.36-3.29 15.798-7.199c4.438-3.909 7.618-9.046 9.137-14.762 1.010-3.797 1.261-7.757 0.739-11.649s-1.806-7.647-3.778-11.044c-1.971-3.397-4.594-6.374-7.716-8.757s-6.682-4.129-10.479-5.137zM461.985 528.745c-5.718-1.517-11.754-1.304-17.351 0.61s-10.501 5.445-14.090 10.147c-3.589 4.699-5.704 10.36-6.077 16.262s1.012 11.783 3.981 16.898c2.969 5.115 7.388 9.238 12.697 11.841 5.311 2.603 11.274 3.574 17.138 2.79 5.862-0.785 11.36-3.29 15.798-7.199s7.618-9.046 9.137-14.762c1.007-3.797 1.258-7.757 0.737-11.649s-1.804-7.647-3.775-11.044c-1.971-3.397-4.594-6.374-7.716-8.757s-6.682-4.129-10.479-5.137z" />
<glyph unicode="&#xe937;" glyph-name="aquarium" horiz-adv-x="892" d="M426.067 582.32c-55.109-4.144-108.286-22.109-154.617-52.236 6.060 24.141 18.889 46.049 36.984 63.141 18.092 17.093 40.692 28.659 65.139 33.337 6.467 1.301 13.147 1.126 19.54-0.512 6.39-1.638 12.331-4.697 17.377-8.949s9.068-9.588 11.764-15.61c2.696-6.022 4-12.574 3.814-19.171zM678.359 582.779c-7.242 9.907-16.427 18.235-26.995 24.474-10.57 6.239-22.298 10.258-34.471 11.812-1.555 12.174-5.575 23.903-11.812 34.472-6.24 10.568-14.568 19.754-24.476 26.996-5.082 3.824-11.128 6.158-17.461 6.74s-12.702-0.61-18.396-3.443c-5.692-2.833-10.484-7.196-13.838-12.599s-5.139-11.633-5.153-17.992v-105.371c-149.872 0-235.384-28.65-279.865-103.556 47.202-12.331 90.26-37.027 124.734-71.546 34.476-34.517 59.122-77.604 71.393-124.82 74.986 44.46 103.675 129.993 103.675 279.985h105.372c6.359 0.012 12.589 1.797 17.992 5.151 5.405 3.354 9.766 8.147 12.599 13.841s4.027 12.063 3.443 18.396c-0.581 6.333-2.914 12.379-6.74 17.461zM589.558 428.241h-9.472c-3.007-27.014-8.431-53.705-16.209-79.75h16.231c49.585-1.536 65.514 77.279 9.45 79.75zM405.154 230.638c-47.85-13.716-130.333-42.726-175.054 1.636-8.032 8.005-14.254 17.64-18.25 28.253s-5.673 21.959-4.918 33.273c1.849 38.701 9.104 76.956 21.553 113.645 43.164-9.728 82.676-31.507 113.951-62.806 31.273-31.299 53.021-70.831 62.718-114.001zM306.441 288.678c0 5.287-2.101 10.357-5.838 14.097-3.74 3.74-8.812 5.84-14.099 5.84s-10.36-2.101-14.099-5.84c-3.737-3.74-5.838-8.809-5.838-14.097s2.101-10.36 5.838-14.099c3.74-3.74 8.812-5.84 14.099-5.84s10.36 2.101 14.099 5.84c3.737 3.74 5.838 8.812 5.838 14.099z" />
<glyph unicode="&#xe938;" glyph-name="amusement" horiz-adv-x="892" d="M685.253 467.937c-0.060 15.274-5.962 29.947-16.494 41.010-10.532 11.061-24.897 17.676-40.149 18.485-19.982 46.288-56.889 83.195-103.178 103.178-0.809 15.253-7.424 29.618-18.485 40.15-11.063 10.532-25.736 16.433-41.010 16.493h-39.874c-15.274-0.060-29.947-5.961-41.010-16.493-11.061-10.532-17.676-24.897-18.485-40.15-46.286-19.987-83.19-56.892-103.178-103.178-15.252-0.809-29.618-7.424-40.15-18.485-10.532-11.063-16.433-25.736-16.493-41.010v-59.813h43.862c6.256-30.799 19.729-59.677 39.309-84.262 19.583-24.583 44.719-44.171 73.34-57.155l-19.719-57.959h42.128l15.353 45.159c29.572-7.058 60.387-7.058 89.959 0l15.372-45.159h42.108l-19.719 57.959c28.619 12.989 53.75 32.579 73.331 57.162 19.583 24.583 33.057 53.459 39.319 84.255h43.862v59.813zM446.001 288.498c-10.778 0.024-21.526 1.134-32.079 3.311l32.079 94.385 32.079-94.306c-10.551-2.204-21.298-3.34-32.079-3.39zM515.784 304.568l-50.961 149.851c-1.34 3.948-3.881 7.374-7.266 9.802-3.388 2.426-7.45 3.732-11.616 3.732-4.168 0-8.228-1.306-11.616-3.732-3.385-2.428-5.926-5.855-7.266-9.802l-50.841-149.851c-20.765 10.084-39.087 24.574-53.686 42.458s-25.126 38.733-30.849 61.098h74.568v59.813c-0.036 15.561-6.134 30.495-17.001 41.632-10.864 11.137-25.643 17.602-41.197 18.023 14.047 24.121 34.096 44.197 58.198 58.277v-18.243h159.5v18.243c24.097-14.080 44.14-34.158 58.179-58.277-15.551-0.426-30.325-6.893-41.185-18.030-10.862-11.137-16.958-26.069-16.994-41.625v-59.813h74.568c-5.73-22.363-16.26-43.209-30.859-61.091-14.597-17.884-32.914-32.373-53.676-42.465z" />
<glyph unicode="&#xe939;" glyph-name="airport" horiz-adv-x="892" d="M330.401 358.282c-22.987 0-45.936 7.039-65.354 20.856l-41.372 29.428c-8.932 6.34-14.953 16.188-16.508 26.976-1.475 10.147 1.077 20.016 7.197 27.832 10.328 13.2 27.693 18.243 43.244 12.561l64.739-23.765 292.187 140.778c24.961 11.544 54.569 0.598 66.093-24.322 11.522-24.882 0.756-54.729-23.985-66.553l-278.112-132.924c-15.252-7.278-31.682-10.867-48.13-10.867zM685.253 258.593c0 11.027-8.931 19.939-19.937 19.939h-438.63c-11.006 0-19.938-8.912-19.938-19.939 0-11.025 8.932-19.937 19.938-19.937h438.63c11.006 0 19.937 8.912 19.937 19.937zM378.491 523.467l108.044 52.057-116.616 72.015c-14.635 10.866-34.034 12.86-50.681 5.184l-15.573-7.317c-9.13-4.286-15.432-12.82-16.867-22.809-1.436-10.009 2.213-19.958 9.771-26.657l81.922-72.472z" />
<glyph unicode="&#xe93a;" glyph-name="bed" d="M401.781 436.981c36.592 0 66.134 29.542 66.134 66.134s-29.542 66.133-66.134 66.133c-36.592 0-66.134-29.541-66.134-66.133s29.542-66.134 66.134-66.134zM666.316 569.247h-132.269c-24.251 0-44.091-19.84-44.091-44.091v-110.224h-176.357v176.357c0 12.123-9.92 22.043-22.043 22.043s-22.042-9.92-22.042-22.043v-286.575c0-12.125 9.92-22.045 22.042-22.045s22.043 9.92 22.043 22.045v44.090h396.801v-44.090c0-12.125 9.92-22.045 22.041-22.045 12.125 0 22.045 9.92 22.045 22.045v176.357c0 48.72-39.463 88.176-88.175 88.176z" />
<glyph unicode="&#xe93b;" glyph-name="tours" d="M314.287 373.161c0 24.829 20.112 44.928 44.928 44.928s44.928-20.112 44.928-44.928-20.112-44.928-44.928-44.928c-24.829 0-44.928 20.112-44.928 44.928zM359.215 310.244c-30.201 0-56.51-21.134-62.537-50.273-2.007-9.727 4.231-19.229 13.954-21.239 9.656-1.952 19.229 4.231 21.239 13.954 2.607 12.531 14.085 21.628 27.344 21.628s24.725-9.097 27.344-21.628c1.769-8.503 9.237-14.321 17.572-14.321 1.202 0 2.424 0.119 3.664 0.38 9.726 2.007 15.972 11.517 13.954 21.239-6.014 29.131-32.333 50.273-62.537 50.273zM655.798 418.102h-161.772c-19.824 0-35.942 16.129-35.942 35.941s16.129 35.941 35.942 35.941h17.97c9.918 0 17.971 8.058 17.971 17.971s-8.058 17.971-17.971 17.971h-17.97c-39.655 0-71.892-32.245-71.892-71.892s32.245-71.892 71.892-71.892h161.772c19.824 0 35.941-16.129 35.941-35.941s-16.129-35.941-35.941-35.941h-179.743c-9.918 0-17.971-8.058-17.971-17.971s8.058-17.971 17.971-17.971h179.743c39.654 0 71.892 32.245 71.892 71.892s-32.245 71.892-71.892 71.892zM574.956 536.913l-15.5-49.697c-2.083-6.669 0.231-13.954 5.839-18.139 2.916-2.188 6.405-3.289 9.892-3.289 3.203 0 6.381 0.916 9.16 2.791l44.613 29.86 45.373-29.546c5.857-3.813 13.502-3.498 19.054 0.748 5.552 4.284 7.783 11.595 5.595 18.225l-16.129 49.101 38.979 31.76c5.28 4.461 7.246 11.753 4.866 18.257s-8.556 10.818-15.474 10.818h-49.444l-17.509 49.101c-2.398 6.459-8.556 10.731-15.447 10.731s-13.048-4.284-15.446-10.731l-17.51-49.101h-49.444c-6.905 0-13.089-4.311-15.453-10.809-2.398-6.486-0.461-13.77 4.804-18.251l39.163-31.852z" />
<glyph unicode="&#xe93c;" glyph-name="arrow" d="M723.486 720.684c-6.72-1.009-445.214-152.792-455.684-157.762-19.956-9.458-32.703-34.628-28.653-56.573 2.779-15.123 12.5-29.738 24.581-36.954 3.124-1.853 47.029-19.561 97.57-39.338 61.118-23.892 92.765-36.796 94.424-38.459s14.563-33.306 38.459-94.424c19.777-50.541 37.485-94.446 39.338-97.57 7.346-12.295 22.233-22.077 37.507-24.581 22.077-3.642 46.577 8.876 56.038 28.653 5.364 11.181 156.577 448.575 157.955 456.847 2.993 18.032-5.817 38.67-21.328 50.121-6.867 5.12-15.191 8.702-24.231 10.038l-0.291 0.037c-7.346 1.185-7.37 1.185-15.681-0.022zM589.336 553.211c-106.079-106.079-122.319-121.914-124.219-121.181-18.398 7.062-174.738 68.384-177.991 69.821-11.052 4.869-11.741 21.016-1.077 25.938 3.882 1.83 422.637 147.292 424.278 147.399 0.582 0.051-53.88-54.828-120.987-121.977zM665.836 434.093c-40.415-116.549-74.198-212.985-75.054-214.285-4.050-6.183-16.023-7.432-21.222-2.219-1.796 1.796-13.8 31.173-38.433 94.001l-35.791 91.387 121.738 121.806c66.935 67.016 121.87 121.703 122.021 121.526 0.154-0.154-32.81-95.642-73.247-212.223z" />
<glyph unicode="&#xe93d;" glyph-name="musical" d="M706.581 439.788l-156.051-44.876c-14.604-9.087-30.632-17.768-47.872-25.648v-117.294c0-15.472-12.532-28-27.999-28s-28 12.532-28 28v96.235c-64.225-18.945-117.257-16.032-128.523 10.528-11.328 26.73 23.128 69.272 80.945 105.219-50.064 55.44-88.954 121.046-101.051 173.805-3.458 15.064 5.951 30.090 21.045 33.544 15.024 3.458 30.118-5.951 33.544-21.017 5.447-23.789 20.496-56.273 42.776-90.265h85.512c21.689 34.123 35.674 66.466 41.151 90.265 4.088 17.852 24.433 27.71 41.684 17.824 10.752-6.16 15.568-18.816 12.768-30.902-9.339-40.115-33.002-87.073-64.731-131.072-4.187-5.783-4.215-13.624 0-19.376 0.070-0.098 0.154-0.21 0.224-0.294 6.455-8.751 19.488-8.947 26.113-0.322 7.728 10.080 16.172 22.921 20.552 35.672 37.259 3.486 64.787-3.57 72.52-21.801 2.982-7.056 2.632-15.248-0.336-24.125l59.92 17.64c14.8 4.368 30.398-4.131 34.767-18.973 4.368-14.828-4.131-30.398-18.973-34.767v-0.014zM437.328 578.658c25.777 0 46.668 20.888 46.668 46.668s-20.888 46.668-46.668 46.668c-25.777 0-46.668-20.888-46.668-46.668s20.888-46.668 46.668-46.668z" />
<glyph unicode="&#xe93f;" glyph-name="musicnote" d="M723.087 669.524c-9.027 7.531-19.61 12.972-31.003 15.914s-23.265 3.345-34.817 1.149l-183.669-34.44c-22.931-4.303-43.632-16.473-58.52-34.423s-23.054-40.542-23.054-63.852v-196.989c-12.104 7.195-25.909 11.035-40.003 11.114-15.824 0-31.289-4.695-44.442-13.484-13.154-8.793-23.414-21.284-29.47-35.897s-7.635-30.703-4.545-46.212c3.083-15.524 10.702-29.773 21.888-40.962s25.446-18.807 40.962-21.89c15.524-3.082 31.603-1.505 46.213 4.545s27.104 16.304 35.895 29.47c8.791 13.154 13.484 28.625 13.484 44.442v182.469c-0.002 9.335 3.255 18.374 9.224 25.543s14.238 12.044 23.414 13.766l223.657 42c2.895 0.553 5.895 0.436 8.744-0.303s5.505-2.115 7.785-4.005 4.090-4.268 5.325-6.945c1.245-2.685 1.875-5.595 1.845-8.553v-115.199c-12.104 7.222-25.903 11.085-40.003 11.204-15.824 0-31.293-4.695-44.442-13.484-13.154-8.793-23.414-21.284-29.47-35.897s-7.635-30.703-4.545-46.212c3.082-15.524 10.702-29.773 21.885-40.962 11.187-11.187 25.45-18.807 40.962-21.89s31.603-1.505 46.212 4.545c14.624 6.050 27.105 16.304 35.893 29.47 8.793 13.154 13.484 28.625 13.484 44.442v259.989c0.015 11.75-2.565 23.366-7.575 34.003s-12.284 20.042-21.344 27.525z" />
<glyph unicode="&#xe940;" glyph-name="startpoint" d="M511.985 136.005c-37.205 0-72.365 14.333-98.981 40.347l-102.515 94.715c-54.756 54.735-84.497 126.54-84.497 202.936s29.739 148.225 83.772 202.237c53.998 53.998 125.838 83.772 202.235 83.772s148.2-29.778 202.238-83.772 83.772-125.814 83.772-202.237c0-76.42-29.778-148.202-83.772-202.234l-103.802-95.924c-26.072-25.506-61.23-39.858-98.459-39.858h0.020zM511.985 708.008c-62.5 0-121.289-24.336-165.464-68.544-44.208-44.208-68.544-102.943-68.544-165.464s24.336-121.27 68.544-165.464l102.319-94.52c34.731-33.951 92.121-33.441 125.76-0.525l103.584 95.729c43.446 43.506 67.804 102.258 67.804 164.736s-24.356 121.273-68.541 165.464c-44.208 44.208-102.96 68.562-165.464 68.562zM634.367 420.705c10.161 10.16 10.161 26.598 0 36.759s-26.598 10.16-36.759 0c-22.854-22.856-53.274-35.47-85.628-35.47-32.351 0-62.771 12.578-85.625 35.47-10.16 10.16-26.598 10.16-36.759 0s-10.16-26.6 0-36.759c32.682-32.682 76.15-50.7 122.381-50.7 46.236 0 89.7 17.999 122.382 50.7zM446.989 578.014c-21.528 0-39-17.472-39-39s17.472-39 39-39c21.528 0 39 17.472 39 39s-17.472 39-39 39zM576.981 578.014c-21.528 0-39-17.472-39-39s17.472-39 39-39c21.528 0 39 17.472 39 39s-17.472 39-39 39z" />
<glyph unicode="&#xe941;" glyph-name="bullet" d="M511.998 378.666c-38.271 0-69.332 31.063-69.332 69.335s31.062 69.332 69.332 69.332c38.272 0 69.335-31.062 69.335-69.332 0-38.272-31.063-69.335-69.335-69.335z" />
<glyph unicode="&#xe942;" glyph-name="arrow-circle-broken-right" d="M493.139 719.32c-96.333-4.814-185.813-53.5-236.898-128.89-5.789-8.486-6.128-9.436-6.128-15.962 0-8.1 2.142-11.872 9.13-15.859 8.654-4.957 18.52-2.401 24.568 6.265 19.908 28.603 42.078 51.318 65.932 67.657 33.572 23.291 73.574 39.887 116.791 46.886l1.654 0.226c18.56 2.945 69.541 2.979 87.348 0.040 40.907-6.762 79.415-21.184 110.232-41.284 55.602-36.327 92.345-88.211 105.339-148.77 2.816-13.186 3.013-16.042 3.013-41.778s-0.192-28.603-3.013-41.778c-15.077-70.301-63.222-129.98-132.084-163.791-24.185-12.062-52.245-21.228-81.765-26.029l-1.711-0.226c-17.509-2.856-68.788-2.895-86.773 0-57.591 9.2-109.281 34.040-147.683 70.929-12.314 11.475-23.291 24.083-32.851 37.734l-0.501 0.77c-7.893 10.965-12.348 14.197-19.571 14.197-6.353-0.498-11.901-3.6-15.633-8.222l-0.032-0.056c-1.805-2.401-2.367-4.848-2.367-10.139 0-6.547 0.337-7.476 6.128-15.962 45.19-66.686 120.362-112.713 205.388-125.736 28.297-4.323 71.083-4.579 97.862-0.566 70.215 10.547 131.71 41.415 178.104 89.264 18.702 18.769 34.482 40.463 46.561 64.343l0.668 1.439c17.184 32.148 27.255 70.319 27.255 110.844 0 1.050-0.011 2.097-0.022 3.149l0.002-0.158c0.022 0.894 0.022 1.94 0.022 2.99 0 40.531-10.071 78.695-27.889 112.125l0.634-1.29c-12.766 25.32-28.535 47.022-47.226 65.785l0.022-0.022c-46.434 47.94-108.081 78.831-177.929 89.196-6.513 0.974-14.653 1.779-22.883 2.265l-19.563 0.94c-1.371 0.022-2.99 0.029-4.61 0.029-6.853 0-13.65-0.201-20.402-0.6l0.94 0.056zM507.786 567.28c-5.052-1.232-9.213-4.406-11.713-8.666l-0.056-0.090c-1.269-2.775-2.017-5.993-2.017-9.404 0-3.047 0.6-5.925 1.677-8.586l-0.056 0.158c0.906-1.845 19.155-19.009 40.497-38.22l38.765-34.899-174.768-0.566c-172.253-0.566-174.836-0.6-178.642-2.816-12.769-7.516-12.769-25.16 0-32.681 3.784-2.231 6.385-2.265 178.642-2.816l174.768-0.566-38.765-34.899c-21.336-19.194-39.599-36.366-40.497-38.22-3.41-6.581-1.575-17.66 3.716-22.282 5.483-4.78 15.111-6.197 20.999-3.081 4.957 2.639 119.238 106.086 121.076 109.621 1.049 2.537 1.658 5.483 1.658 8.567s-0.609 6.027-1.711 8.722l0.056-0.158c-1.765 3.376-116.079 107.038-120.587 109.318-2.578 1.235-5.614 1.981-8.824 1.981-1.496 0-2.952-0.158-4.372-0.464l0.135 0.022z" />
<glyph unicode="&#xe943;" glyph-name="dots" d="M397.025 653.998c-18.598-2.443-34.475-18.459-37.055-37.346-3.383-24.823 13.24-47.459 37.313-50.736 2.079-0.349 4.478-0.54 6.928-0.54 24.618 0 44.58 19.962 44.58 44.58 0 2.311-0.173 4.581-0.514 6.801l0.034-0.246c-3.493 24.716-25.621 40.908-51.277 37.495zM613.163 654.143c-13.42-1.587-27.419-11.835-33.391-24.432-2.872-5.743-4.552-12.521-4.552-19.682 0-17.514 10.028-32.675 24.66-40.073l0.256-0.117c26.91-13.24 59.836 3.99 63.868 33.425 4.142 30.369-20.045 54.549-50.841 50.876zM397.025 492.085c-18.598-2.443-34.475-18.459-37.055-37.346-3.383-24.823 13.24-47.459 37.313-50.736 2.079-0.349 4.478-0.54 6.928-0.54 24.618 0 44.58 19.962 44.58 44.58 0 2.311-0.173 4.581-0.514 6.801l0.034-0.246c-3.493 24.716-25.621 40.908-51.277 37.495zM613.163 492.224c-13.42-1.587-27.419-11.835-33.391-24.432-2.872-5.743-4.552-12.521-4.552-19.682 0-17.514 10.028-32.675 24.66-40.073l0.256-0.117c26.91-13.24 59.836 3.99 63.868 33.425 4.142 30.369-20.045 54.549-50.841 50.876zM397.025 330.164c-18.598-2.443-34.475-18.459-37.055-37.346-3.383-24.823 13.24-47.459 37.313-50.736 2.079-0.349 4.478-0.54 6.928-0.54 24.618 0 44.58 19.962 44.58 44.58 0 2.311-0.173 4.581-0.514 6.801l0.034-0.246c-3.493 24.716-25.621 40.908-51.277 37.495zM613.163 330.318c-13.42-1.587-27.419-11.835-33.391-24.432-2.872-5.743-4.552-12.521-4.552-19.682 0-17.514 10.028-32.675 24.66-40.073l0.256-0.117c26.91-13.24 59.836 3.99 63.868 33.425 4.142 30.369-20.045 54.549-50.841 50.876z" />
<glyph unicode="&#xe944;" glyph-name="tm-logo" d="M256 704h512v-512h-512v512z" />
<glyph unicode="&#xe947;" glyph-name="book-mark" d="M418.718 767.355c-78.061-3.42-116.142-15.58-147.532-47.058-11.62-11.7-17.487-19.78-24.743-34.034-21.020-41.221-25.798-85.63-25.798-238.296s4.78-197.063 25.798-238.296c7.143-14.060 13.14-22.26 24.782-34.034 28.404-28.594 62.475-40.909 127.708-46.157 25.060-1.98 201.063-1.98 226.134 0 65.232 5.248 99.304 17.563 127.708 46.157 11.66 11.78 17.64 19.977 24.782 34.034 20.98 41.141 25.798 85.901 25.798 238.296s-4.82 197.143-25.798 238.296c-6.495 13.187-14.787 24.455-24.74 33.994l-0.043 0.039c-28.020 28.25-62.436 40.832-125.382 45.967-19.305 1.551-178.732 2.414-208.685 1.093zM595.783 709.51l3.66-0.74v-113.498c0-68.381-0.42-113.498-1.093-113.498-0.58 0-7.777 5.095-16.012 11.3l-25.454 19.228c-6.154 4.58-13.14 9.060-20.445 13.020l-0.931 0.46-10.955 5.515h-25.1l-10.993-5.554c-9.919-5.54-18.38-11.137-26.38-17.274l0.502 0.38c-21.719-16.509-36.141-27.044-37.141-27.082-0.46 0-0.86 51.1-0.86 113.575v113.575l2.606 0.5c4.232 0.82 164.582 0.9 168.583 0.077zM366.308 596.279c0.038-59.45 0.54-114.148 1.169-121.581 1.321-16.279 4.232-26.26 10.459-35.861 8.58-13.293 25.416-21.14 42.040-19.58 17.525 1.627 32.788 9.252 59.297 29.535 9.366 7.143 20.55 15.5 24.86 18.54l7.891 5.554 7.854-5.554c4.347-3.025 15.54-11.38 24.9-18.54 26.5-20.283 41.773-27.9 59.297-29.535 16.623-1.551 33.461 6.3 42.040 19.58 6.22 9.595 9.137 19.58 10.459 35.861 0.62 7.42 1.131 62.131 1.169 121.581v108.098l3.812-0.74c35.012-6.646 57.226-23.9 68.541-53.262 12.238-31.74 15.034-69.312 15.034-202.383 0-112.292-1.78-150.022-8.62-180.663-11.107-49.817-35.279-70.252-91.581-77.395-25.34-3.18-56.731-4.194-132.88-4.194-119.782 0-152.223 3.025-180.206 16.86-35.088 17.296-47.901 50.701-51.711 134.662-1.513 33.957-1.513 187.503 0 221.463 3.812 83.965 16.623 117.382 51.711 134.662 8.35 4.117 28.25 10.612 33.652 10.993 0.46 0 0.86-48.61 0.86-108.098z" />
<glyph unicode="&#xe948;" glyph-name="bus-012" d="M488.346 756.487c-25.374-1.795-53.48-6.703-75.954-13.222-45.723-13.298-90.384-38.374-123.248-69.177-15.438-14.459-21.883-24.727-27.275-43.36-2.807-9.67-2.844-10.378-2.917-51.559-0.111-39.238-0.221-41.439-1.872-36.805-3.823 10.943-16.676 18.966-28.476 17.839-11.098-1.053-21.809-9.67-24.616-19.706-1.496-5.429-1.496-38.929 0-44.372 2.807-10.046 13.53-18.664 24.616-19.706 11.8-1.127 24.727 6.929 28.439 17.839 1.569 4.536 1.756-3.030 2.29-87.798 0.56-95.141 0.83-101.217 5.429-124.227 5.848-29.086 20.572-52.206 42.086-66.065 8.203-5.244 25.071-12.484 32.298-13.795l4.192-0.791v-19.261c0-21.551 0.753-25.558 5.964-32.372 5.192-6.581 13.146-10.755 22.099-10.755 7.694 0 14.652 3.095 19.728 8.1l-0.004-0.004c6.967 6.967 8.434 12.41 8.434 31.708v16.116h224.833v-16c0-18.245 0.868-22.485 5.964-29.16 5.192-6.581 13.146-10.755 22.099-10.755 7.694 0 14.652 3.095 19.728 8.1l-0.004-0.004c7.276 7.238 8.434 12.101 8.434 34.957v19.335l4.192 0.791c7.238 1.311 24.1 8.55 32.298 13.795 21.514 13.869 36.232 36.989 42.086 66.065 4.613 23.047 4.876 29.047 5.392 124.227 0.444 79.334 0.753 92.113 2.027 88.401 6.592-19.040 31.745-24.653 46.093-10.304 7.16 7.16 8.434 12.217 8.434 33.757s-1.274 26.611-8.434 33.757c-5.076 4.999-12.045 8.083-19.738 8.083-12.036 0-22.312-7.555-26.335-18.194l-0.058-0.194c-1.385-3.86-1.569 0.111-1.643 34.994-0.074 42.866-0.83 50.509-6.187 64.117-6.777 17.119-20.424 32.372-46.649 52.13-44.372 33.425-96.304 53.96-155.14 61.384-13.607 1.718-55.991 3.030-68.574 2.104zM551.944 698.299c34.625-4.728 61.679-13 89.896-27.542 13.943-7.238 29.787-17.081 37.063-23.084l3.378-2.807h-340.634l3.378 2.807c7.276 6.002 23.12 15.846 37.063 23.084 27.25 14.317 59.053 24.222 92.741 27.812l1.162 0.097 15.733 1.68c8.241 0.942 48.347-0.444 60.22-2.065zM708.432 501.22l-0.295-87.311-8.993-1.988c-29.009-6.445-87.090-14.649-127.595-18.060-22.936-1.911-96.231-1.911-119.167 0-40.512 3.416-98.595 11.616-127.595 18.060l-8.993 1.988-0.295 87.311-0.258 87.348h393.473l-0.258-87.348zM348.942 350.351c119.462-20.388 216.782-19.744 339.283 2.29 10.673 1.911 19.706 3.223 20.092 2.844 0.332-0.332 0.258-8.241-0.184-17.544l-0.83-16.934h-16.749c-18.586 0-21.44-0.676-28.476-6.89-5.763-5.076-9.369-12.48-9.369-20.709 0-8.322 3.686-15.796 9.521-20.853l0.032-0.024c5.208-4.69 9.631-6.371 19.63-7.535l7.122-0.791-6.334-3.146c-8.203-4.044-23.527-7.083-43.136-8.55-20.98-1.569-234.211-1.569-255.193 0-19.593 1.459-34.92 4.497-43.136 8.55l-6.334 3.146 7.122 0.791c10.009 1.164 14.422 2.844 19.63 7.535 5.87 5.081 9.554 12.555 9.554 20.877 0 8.241-3.609 15.638-9.343 20.69l-0.026 0.019c-7.045 6.224-9.899 6.89-28.402 6.89h-16.749l-0.714 12.632c-0.406 6.967-0.753 14.881-0.753 17.581v4.949l3.638-0.637 30.089-5.171zM473.092 319.395c-9.901-4.767-16.733-14.493-17.312-25.858l-0.004-0.069c0-10.866 8.511-22.973 18.664-26.574 3.3-1.164 12.294-1.532 37.506-1.532s34.22 0.369 37.506 1.532c10.157 3.601 18.664 15.696 18.664 26.574-0.56 11.522-7.508 21.307-17.351 25.923l-0.181 0.078c-5.281 2.216-72.434 2.142-77.491-0.074z" />
<glyph unicode="&#xe949;" glyph-name="calendar-plus" d="M383.015 755.454c-5.378-0.827-10.025-3.479-13.395-7.293l-0.019-0.019c-6.623-6.998-7.062-8.87-7.447-29.554l-0.344-18.9h-12.065c-27.866-0.032-51.733-2.829-67.074-7.87-34.177-11.141-62.557-40.659-70.665-73.486-4.719-19.276-4.687-17.308-4.687-198.502 0-160.358 0.135-172.54 1.867-183.506 4.214-26.523 11.719-42.079 29.114-59.978 17.029-17.62 37.080-27.898 63.699-32.731 14.245-2.592 66.386-3.752 152.080-3.444 73.633 0.28 79.415 0.443 83.287 2.174 5.561 2.717 10.031 6.972 12.953 12.195l0.076 0.146c6.446 12.526 0.592 29.21-12.214 34.694-4.903 2.097-6.754 2.136-111.009 2.624-123.838 0.558-122.015 0.443-138.872 10.214-12.309 7.139-22.899 19.685-26.035 30.866-3.279 11.622-3.719 28.21-3.719 137.332v108.905h506.743l0.408-12.18c0.443-13.277 1.904-17.684 7.718-23.211 4.676-4.305 10.949-6.946 17.834-6.946 9.987 0 18.677 5.561 23.148 13.743l0.064 0.135c2.248 4.137 2.248 4.407 2.213 72.417 0 71.177-0.312 76.835-4.687 95.038-7.934 32.693-36.425 62.355-70.633 73.486-15.341 5.031-39.208 7.832-67.074 7.87h-12.065l-0.344 18.9c-0.312 16.964-0.592 19.276-2.592 22.995-4.253 8.467-12.873 14.182-22.814 14.182-0.096 0-0.21-0.001-0.302-0.003h0.019c-0.092 0.002-0.184 0.003-0.289 0.003-9.948 0-18.569-5.715-22.754-14.028l-0.060-0.141c-2-3.719-2.28-6.031-2.592-22.995l-0.344-18.9h-196.223l-0.344 18.9c-0.312 16.996-0.592 19.276-2.592 23.072-4.415 8.51-13.166 14.22-23.242 14.22-1.661 0-3.287-0.155-4.855-0.443l0.167 0.019zM362.147 629.101c0.312-16.996 0.592-19.308 2.592-23.033 8.178-15.181 28.652-18.62 41.044-6.935 6.523 6.177 7.31 9.246 7.755 29.961l0.376 18.868h196.191l0.344-18.868c0.312-16.996 0.592-19.308 2.592-23.033 4.483-8.333 13.142-13.912 23.11-13.912s18.626 5.572 23.033 13.775l0.063 0.135c1.968 3.687 2.248 6.177 2.592 23.033l0.376 18.868h15.144c39.389 0 54.86-4.311 70.449-19.652 14.997-14.759 16.525-20.556 17.34-65.943l0.592-32.346h-507.502l0.592 32.346c0.789 45.354 2.312 51.173 17.34 65.943 15.621 15.375 28.962 19.212 68.386 19.524l17.244 0.135 0.344-18.868zM689.569 387.876c-6.138-2.418-11.048-6.835-14.028-12.45l-0.066-0.139c-2.592-5.031-2.592-5.138-2.904-37.928l-0.312-32.865-36.425-0.032c-34.386 0-36.657-0.135-41.080-2.097-10.064-4.591-14.933-12.103-14.933-23.211 0-8.246 2.097-13.309 7.87-18.836 7.139-6.87 7.87-6.967 48.142-7.342l36.425-0.376 0.312-32.769c0.312-31.521 0.376-32.929 2.592-37.041 7.832-14.621 27.178-18.556 39.456-8.030 2.598 2.293 4.822 4.945 6.6 7.881l0.091 0.149c2.213 4.099 2.28 5.523 2.592 37.041l0.312 32.769 36.425 0.376c40.274 0.376 41.005 0.481 48.142 7.342 4.836 4.189 7.884 10.342 7.884 17.218 0 0.564-0.019 1.135-0.058 1.691l0.007-0.073c-0.064 11.18-4.868 18.652-14.901 23.211-4.407 1.968-6.686 2.097-41.143 2.097l-36.457 0.032v30.866c0 33.489-0.52 37.424-5.623 44.175-5.049 5.87-12.488 9.573-20.79 9.573-2.902 0-5.681-0.443-8.302-1.289l0.194 0.058z" />
<glyph unicode="&#xe94a;" d="M783.785 441.697c0 19.672-1.763 38.568-5.044 56.734h-261.205v-107.408h149.263c-6.557-34.547-26.226-63.787-55.725-83.459v-69.838h90.015c52.435 48.414 82.7 119.512 82.7 203.968z" />
</font>
</defs>
</svg>
